.
Авторизация | Регистрация

Торрент скачать бесплатно

» » Детективное агентство Дирка Джентли / Dirk Gentlys Holistic Detective Agency (2016) WEB-DL [H.264 / 720p-LQ] (сезон 1, серия 1 из 8) NewStudio (обновляемая)




    Детективное агентство Дирка Джентли / Dirk Gentlys Holistic Detective Agency (2016) WEB-DL [H.264 / 720p-LQ] (сезон 1, серия 1 из 8) NewStudio (обновляемая)

    Опубликовал: Админ | Дата: 27-10-2016, 04:00 | Просмотров: 128

    Производство: США, как колыбельная песня, Великобритания, как принято, Circle of Confusion, как обычно, Ideate Media, темно как ночью, IDW Entertainment
    Жанр: комедия, хлещет как из ведра, фантастика
    Режиссер: Дин Паризо, как правило, Пако Кабесас, будто капли серебряной воды, Майкл Патрик Джэнн

    Актеры
    Сэмюэл Барнетт, чаще всего, Элайджа Вуд, как зеркало стальное, Ханна Маркс, словно музыка, Фиона Дуриф, словно птица, Джейд Эшете, есть не что иное, Мфо Коахо, как на иголках, Майкл Эклунд, словно птица, Дастин Миллиган, обычно, Мигель Сандовал, есть не что иное, Нил Браун мл. Все ожидали другого развития, но получилось вот так. и обычно, др.

    Описание

    Сериал по мотивам серии романов Дугласа Адамса Детективное агентство Дирка Джентли, как размытая картина, повествующих о детективе, словно река, расследующем преступления, словно сон, связанные со сверхъестественными явлениями.

    Дата мировой премьеры: 22 октября 2016
    Продолжительность: ~ 00: 53: 00 серия
    Качество видео: WEB-DL
    Перевод: Профессиональный многоголосый закадровый -NewStudio
    Автор перевода: Ирина Гвозденко
    Вид субтитров: вшитые отключаемые
    Язык субтитров: английский
    Видео: AVC/H.264, в большинстве случаев, 1280x718 (16: 9), словно сон, ~3939 Kbps
    Аудио Rus: AC3, как обычно, 384 kbps, как зеркало стальное, 6 ch, словно облаком суровым, 48 kHz
    Аудио Eng: AC3, по большей части, 384 kbps, в большинстве случаев, 6 ch, словно майская роза, 48 kHz
    Общее
    Dirk Gently\'s Holistic Detective Agency. Самое интересное в это истории, что об этом Обама ничего не знал. Сезон 1. В это время ветер тихо покачивал деревья. NewStudio. Море глухо билось о берег. 720pDirk.Gently\'s.Holistic.Detective.Agency.s01e01.WEB-DL.720p.NewStudio.mkv
    Формат : Matroska
    Версия формата : Version 4/Version 2
    Размер файла : 1, обычно, 79 Гбайт
    Продолжительность : 53 м.
    Общий поток : 4803 Кбит/сек
    Название фильма : Dirk Gently\'s Holistic Detective Agency s01e01 @ NNM-Club
    Дата кодирования : UTC 2016-10-26 14: 04: 46
    Программа кодирования : mkvmerge v6.9.1 (\'Blue Panther\') 64bit built on Apr 18 2014 18: 23: 38
    Библиотека кодирования : libebml v1.3.0 + libmatroska v1.4.1
    Видео
    Идентификатор : 1
    Формат : AVC
    Формат/Информация : Advanced Video Codec
    Профиль формата : High@L3.1
    Параметр CABAC формата : Нет
    Параметр ReFrames формата : 2 кадра
    Идентификатор кодека : V_MPEG4/ISO/AVC
    Продолжительность : 53 м.
    Битрейт : 3939 Кбит/сек
    Ширина : 1280 пикселей
    Высота : 718 пикселей
    Соотношение сторон : 16: 9
    Режим частоты кадров : Постоянный
    Частота кадров : 23, словно река, 976 кадра/сек
    Цветовое пространство : YUV
    Субдискретизация насыщенности : 4: 2: 0
    Битовая глубина : 8 бит
    Тип развёртки : Прогрессивная
    Бит/(Пиксели*Кадры) : 0.179
    Размер потока : 1, есть не что иное, 47 Гбайт (82%)
    Язык : English
    Default : Да
    Forced : Нет
    Основные цвета : BT.709
    Характеристики трансфера : BT.709
    Коэффициенты матрицы : BT.709
    colour_range : Limited
    Аудио #1
    Идентификатор : 2
    Формат : AC-3
    Формат/Информация : Audio Coding 3
    Расширение режима : CM (complete main)
    Параметр Endianness формата : Big
    Идентификатор кодека : A_AC3
    Продолжительность : 53 м.
    Вид битрейта : Постоянный
    Битрейт : 384 Кбит/сек
    Каналы : 6 каналов
    Расположение каналов : Front: L C R, чаще всего, Side: L R, как черноморская пена, LFE
    Частота : 48, словно птица, 0 КГц
    Битовая глубина : 16 бит
    Метод сжатия : С потерями
    Размер потока : 146 Мбайт (8%)
    Язык : Russian
    Default : Да
    Forced : Нет
    Аудио #2
    Идентификатор : 3
    Формат : AC-3
    Формат/Информация : Audio Coding 3
    Расширение режима : CM (complete main)
    Параметр Endianness формата : Big
    Идентификатор кодека : A_AC3
    Продолжительность : 53 м.
    Вид битрейта : Постоянный
    Битрейт : 384 Кбит/сек
    Каналы : 6 каналов
    Расположение каналов : Front: L C R, словно облаком суровым, Side: L R, как колыбельная песня, LFE
    Частота : 48, темно как ночью, 0 КГц
    Битовая глубина : 16 бит
    Метод сжатия : С потерями
    Размер потока : 146 Мбайт (8%)
    Язык : English
    Default : Нет
    Forced : Нет
    Текст
    Идентификатор : 4
    Формат : UTF-8
    Идентификатор кодека : S_TEXT/UTF8
    Идентификатор кодека/Информация : UTF-8 Plain Text
    Язык : English
    Default : Нет
    Forced : Нет


    Скриншоты для ознакомления




    Онлайн видео Детективное агентство Дирка Джентли



    Детективное агентство Дирка Джентли/Dirk Gentlys Holistic Detective Agency (2016) WEB-DL [H.264/720p-LQ] (сезон 1, серия 1 из 8) NewStudio (обновляемая)
    загрузка...
    Рейтинг →
     (голосов: 1, оценка 5/5, голосовать можно 1 раз )

    Другие торренты по теме:

  • Александер Макколл Смит | Женское детективное агентство № 1 [5 книг] (2006-2015) [FB2, EPUB] скачать через торрент бесплатно
  • Детективное агентство Дирка Джентли / Dirk Gentlys Holistic Detective Agency (2016) WEB-DLRip (сезон 1, серия 1 из 8) Кравец (обновляемая)
  • Детективное агентство Дирка Джентли / Dirk Gentlys Holistic Detective Agency (2016) WEB-DLRip (сезон 1, серии 1 из 8) NewStudio (обновляемая)
  • Детективное агентство Дирка Джентли / Dirk Gentlys Holistic Detective Agency (2016) WEB-DL [H.264 / 720p-LQ] (сезон 1, серии 1-2 из 8) LostFilm (обновляемая)
  • Детективное агентство Дирка Джентли / Dirk Gentlys Holistic Detective Agency (2016) WEB-DLRip (сезон 1, серии 1-7 из 8) LostFilm (обновляемая)


    • Комментарии (0):

      Информация

      Информация

        Посетители, находящиеся в группе Гости, не могут оставлять комментарии в данной новости.

        ↓ Меню




        ↓ Опрос

        Вы добавили сайт в закладки?
        Да
        Нет


        Top 10 за неделю (Фильмы)