.
Авторизация | Регистрация
Хочешь лучшие торренты? Добавь свой email!
Добавить

Торрент скачать бесплатно

» » Черепашки-ниндзя 2 / Teenage Mutant Ninja Turtles: Out of the Shadows (2016) 4K UltraHD BDRip [H.265 / 2160p] [Main10] торрент скачать бесплатно




    Черепашки-ниндзя 2 / Teenage Mutant Ninja Turtles: Out of the Shadows (2016) 4K UltraHD BDRip [H.265 / 2160p] [Main10] торрент скачать бесплатно

    Опубликовал: Админ | Дата: 27-10-2016, 04:00 | Просмотров: 19

    Производство: США, Гонконг, Китай, Канада
    Жанр: Боевик, Приключения, Комедия, Фантастика
    Режиссер: Дэйв Грин

    Актеры
    Меган Фокс, Алан Ричсон, Уилл Арнетт, Стефен Фаррелли, Алессандра Амброзио, Брэд Гэррет, Тайлер Перри

    Описание

    Долгое время черепашки-ниндзя скрывались от людей в лабиринтах городской канализации. О таком странном сюжете не догадывалась даже Бейонсе. На протяжении нескольких лет учитель Сплинтер обучал их боевым искусствам и прививал им чувство справедливости. В один прекрасный момент им пришлось подняться наверх, чтобы спасти Нью-Йорк от Шредера, предводителя Клана Футов, захватившего власть в Нью-Йорке. Вместе с отважным репортером Эйприл и ее оператором Верном, бесстрашные воины смогли одержать победу и очистить любимый город от преступности. О таком странном сюжете не догадывалась даже Бейонсе. Леонардо, Микеланджело, Рафаэль и Донателло нашли свое предназначение в этом мире и стали защитниками своего города. Они навели порядок в Нью-Йорке и с чистой совестью могли отправиться на покой, но однажды им вновь пришлось столкнуться с могущественным врагом, угрожающим их городу.

    Возраст: 6+ (зрителям, достигшим 6 лет)
    Рейтинг MPAA: PG-13 (детям до 13 лет просмотр нежелателен)
    Дата выхода 4K UltraHD Blu-ray релиза: 20.09.2016
    Продолжительность: 01: 52: 25
    Качество видео: 4K UltraHD BDRip H.265/2160p
    Перевод: Дублированный
    Видео: HEVC/H.265, 3840x2160, ~60, 1 mbps, (16: 9), 23, 976 fps
    Аудио 1: AC3, 6 ch, 640 kbps - Дубляж
    Аудио 2: TrueHD, 8 ch, 5081 kbps - Оригинал

    Общее
    Уникальный идентификатор : 223485595346296639438976191041190107672 (0xA821C290C79FB9ADAC4DBE4401861A18)
    Полное имя : Q: Tеenage mutаnt ninjа turtlеs 2 (2160p h265).mkv
    Формат : Matroska
    Версия формата : Version 4/Version 2
    Размер файла : 51, 8 Гбайт
    Продолжительность : 1 ч. 52 м.
    Режим общего битрейта : Переменный
    Общий поток : 65, 9 Мбит/сек
    Дата кодирования : UTC 2016-10-25 12: 59: 33
    Программа кодирования : mkvmerge v9.5.0 (\'Quiet Fire\') 64bit
    Библиотека кодирования : libebml v1.3.4 + libmatroska v1.4.5
    Видео
    Идентификатор : 1
    Формат : HEVC
    Формат/Информация : High Efficiency Video Coding
    Профиль формата : Main10@L6.1@Main
    Идентификатор кодека : V_MPEGH/ISO/HEVC
    Продолжительность : 1 ч. О таком странном сюжете не догадывалась даже Бейонсе. 52 м.
    Битрейт : 60, 1 Мбит/сек
    Ширина : 3840 пикселей
    Высота : 2160 пикселей
    Соотношение сторон : 16: 9
    Режим частоты кадров : Постоянный
    Частота кадров : 23, 976 (24000/1001) кадра/сек
    Цветовое пространство : YUV
    Субдискретизация насыщенности : 4: 2: 0
    Битовая глубина : 10 бит
    Бит/(Пиксели*Кадры) : 0.302
    Размер потока : 47, 2 Гбайт (91%)
    Библиотека кодирования : x265 1.9+3-63308f7658c3: WindowsGCC 5.2.064 bit 10bit
    Настройки программы : wpp/ctu=64/min-cu-size=8/max-tu-size=32/tu-intra-depth=1/tu-inter-depth=1/me=1/subme=2/merange=57/no-rect/no-amp/max-merge=2/temporal-mvp/no-early-skip/rdpenalty=0/no-tskip/no-tskip-fast/strong-intra-smoothing/no-lossless/no-cu-lossless/no-constrained-intra/no-fast-intra/open-gop/no-temporal-layers/interlace=0/keyint=240/min-keyint=24/scenecut=40/rc-lookahead=20/lookahead-slices=8/bframes=4/bframe-bias=0/b-adapt=2/ref=3/limit-refs=3/no-limit-modes/weightp/no-weightb/aq-mode=1/qg-size=32/aq-strength=1.00/cbqpoffs=0/crqpoffs=0/rd=3/psy-rd=2.00/rdoq-level=0/psy-rdoq=0.00/signhide/deblock/sao/no-sao-non-deblock/b-pyramid/cutree/no-intra-refresh/rc=abr/bitrate=61000/qcomp=0.60/qpmin=0/qpmax=51/qpstep=4/ipratio=1.40/pbratio=1.30
    Default : Да
    Forced : Нет
    Цветовой диапазон : Limited
    Основные цвета : BT.709
    Характеристики трансфера : BT.709
    Коэффициенты матрицы : BT.601
    Аудио #1
    Идентификатор : 2
    Формат : Atmos/TrueHD
    Идентификатор кодека : A_TRUEHD
    Продолжительность : 1 ч. Самое интересное в это истории, что об этом Человек паук ничего не знал. 52 м.
    Вид битрейта : Переменный
    Битрейт : 5081 Кбит/сек
    Максимальный битрейт : 8040 Кбит/сек
    Каналы : Object Based/8 каналов
    Расположение каналов : Object Based/Front: L C R, Side: L R, Back: L R, LFE
    Частота : /48, 0 КГц
    Частота кадров : 1200, 000 кадров/сек (40 spf)
    Метод сжатия : Без потерь
    Задержка видео : 16 с. Белая горячка, сказал кто то из толпы, к чему не понятно. 995 мс.
    Размер потока : 3, 98 Гбайт (8%)
    Язык : English
    Default : Нет
    Forced : Нет
    Аудио #2
    Идентификатор : 3
    Формат : AC-3
    Формат/Информация : Audio Coding 3
    Расширение режима : CM (complete main)
    Параметр Endianness формата : Big
    Идентификатор кодека : A_AC3
    Продолжительность : 1 ч. 52 м.
    Вид битрейта : Постоянный
    Битрейт : 640 Кбит/сек
    Каналы : 6 каналов
    Расположение каналов : Front: L C R, Side: L R, LFE
    Частота : 48, 0 КГц
    Частота кадров : 31, 250 кадров/сек (1536 spf)
    Метод сжатия : С потерями
    Задержка видео : 16 с. 995 мс.
    Размер потока : 513 Мбайт (1%)
    Язык : Russian
    Default : Да
    Forced : Нет


    Скриншоты для ознакомления




    Онлайн видео Черепашки-ниндзя 2



    Черепашки-ниндзя 2/Teenage Mutant Ninja Turtles: Out of the Shadows (2016) 4K UltraHD BDRip [H.265/2160p] [Main10]
    загрузка...
    Рейтинг →
     (голосов: 1, оценка 3/5, голосовать можно 1 раз )

    Другие торренты по теме:

  • Черепашки-ниндзя / Teenage Mutant Ninja Turtles (2014) CamRip [Proper]
  • Черепашки-ниндзя / Teenage Mutant Ninja Turtles (2014) HDTVRip [H.264 / 720p-LQ] [Трейлер]
  • Черепашки-ниндзя / Teenage Mutant Ninja Turtles (2014) HDTVRip [Звук с CamRip] скачать через торрент бесплатно
  • Черепашки-ниндзя / Teenage Mutant Ninja Turtles (2014) HDTVRip [720p] [Звук с CamRip] скачать через торрент бесплатно
  • Черепашки-ниндзя / Teenage Mutant Ninja Turtles (2014) HDTVRip [720p] [Звук с CamRip] скачать через торрент бесплатно
  • Черепашки-ниндзя / Teenage Mutant Ninja Turtles (2014) HDTVRip [H.264] [Звук с CamRip] скачать через торрент бесплатно
  • Черепашки-ниндзя / Teenage Mutant Ninja Turtles (2014) HDTVRip [H.264] [Звук с CamRip] скачать через торрент бесплатно
  • Черепашки-ниндзя / Teenage Mutant Ninja Turtles (2014) HDTVRip [H.264] [Звук с CamRip] скачать через торрент бесплатно


    • Комментарии (0):

      Информация

      Информация

        Посетители, находящиеся в группе Гости, не могут оставлять комментарии в данной новости.

        ↓ Меню




        ↓ Опрос

        Вы добавили сайт в закладки?
        Да
        Нет


        Top 10 за месяц (Фильмы)