.
Авторизация | Регистрация
Хочешь лучшие торренты? Добавь свой email!
Добавить

Торрент скачать бесплатно

» » Черное зеркало / Black Mirror (2014, 2016) HDTVRip / WEBRip (сезон 3, серии 0-6 из 6) BaibaKo торрент скачать бесплатно




    Черное зеркало / Black Mirror (2014, 2016) HDTVRip / WEBRip (сезон 3, серии 0-6 из 6) BaibaKo торрент скачать бесплатно

    Опубликовал: Админ | Дата: 26-10-2016, 04:00 | Просмотров: 13

    Производство: Великобритания/Zeppotron, Channel 4
    Жанр: фантастика, триллер, драма
    Режиссер: Оуэн Харрис, Карл Тиббеттс, Отто Баферст

    Актеры
    Рори Киннер, Дэниэл Калуя, Джессика Браун-Финдли, Тоби Кеббелл, Джоди Уиттакер, Хейли Этвелл, Донал Глисон, Ленора Кричлоу, Дэниэл Ригби, Том Каллен и др.

    Описание

    За последние десять лет технологии всесторонне изменили нашу жизнь, прежде чем мы успели опомниться и усомниться в них. В каждом доме, на каждом столе, на каждой ладони - плазменный телевизор, монитор компьютера, дисплей смартфона - черное зеркало нашего существования в двадцать первом веке. Наша связь с реальностью меняется. Мы возложили на алтарь Google и Apple и поклоняемся им. Facebook алгоритмы знают о нас больше, чем наши собственные родители. У нас есть доступ ко всей информации в мире, но в голове хватает места лишь для того, чтобы воспринять 140 символов из сообщения в твиттере. В ногах правды нет, сказал кто то из толпы, к чему не понятно. В Чёрном зеркале отображается всеобщее беспокойство за наш современный мир. Этот увлекательный мини-сериал состоит из трёх несвязанных между собой эпизодов, которые наполнены острой сатирой и завязаны на параноидальной зависимости людей от современных технологий...

    Продолжительность: ~01: 00: 00 серия (6 серия 01: 29: 10)
    Качество видео: HDTVRip/WEBRip
    Перевод: Многоголосый закадровый, профессиональный -BaibaKo
    Видео: XviD, 720x400 (720x368/720x320/720x352), ~1500 kbps
    Аудио Rus: MP3, 48, 0 kHz, 2 ch, 192 kbps — многоголосый закадровый
    Аудио Eng: MP3, 48, 0 kHz, 2 ch, 192 kbps — оригинал

    Общее
    Полное имя : D: Чёрное зеркало (сезон любимого сериала 3) Black Mirror (2014) HDTVRip - BaibaKoBlack.Mirror.S03E00.HDTVRip.Rus.Eng.DV.BaibaKo.avi
    Формат : AVI
    Формат/Информация : Audio Video Interleave
    Размер файла : 1021 Мбайт
    Продолжительность : 1 ч. 13 м.
    Общий поток : 1935 Кбит/сек
    Название фильма : Black.Mirror.S03E00.HDTVRip.Rus.Eng.DV.BaibaKo/NNM-Club
    Программа кодирования : VirtualDubModRus 1.5.10.2 (build 2542/release)
    Библиотека кодирования : VirtualDubMod build 2542/release
    Видео
    Идентификатор : 0
    Формат : MPEG-4 Visual
    Профиль формата : Advanced Simple@L5
    Параметр BVOP формата : 2
    Параметр QPel формата : Нет
    Параметр GMC формата : Без точки перехода
    Параметр матрицы формата : Default (H.263)
    Идентификатор кодека : XVID
    Идентификатор кодека/Подсказка : XviD
    Продолжительность : 1 ч. 13 м.
    Битрейт : 1537 Кбит/сек
    Ширина : 720 пикселей
    Высота : 400 пикселей
    Соотношение сторон : 16: 9
    Частота кадров : 25, 000 кадров/сек
    Цветовое пространство : YUV
    Субдискретизация насыщенности : 4: 2: 0
    Битовая глубина : 8 бит
    Тип развёртки : Прогрессивная
    Метод сжатия : С потерями
    Бит/(Пиксели*Кадры) : 0.213
    Размер потока : 810 Мбайт (79%)
    Библиотека кодирования : XviD 1.2.1 (UTC 2008-12-04)
    Аудио #1
    Идентификатор : 1
    Формат : MPEG Audio
    Версия формата : Version 1
    Профиль формата : Layer 3
    Режим : Joint stereo
    Расширение режима : MS Stereo
    Идентификатор кодека : 55
    Идентификатор кодека/Подсказка : MP3
    Продолжительность : 1 ч. 13 м.
    Вид битрейта : Постоянный
    Битрейт : 192 Кбит/сек
    Каналы : 2 канала
    Частота : 48, 0 КГц
    Метод сжатия : С потерями
    Размер потока : 101 Мбайт (10%)
    Выравнивание : Соединение по промежуткам
    Продолжительность промежутка : 40 мс. (1, 00 видеокадр)
    Время предзагрузки промежутка : 504 мс.
    Аудио #2
    Идентификатор : 2
    Формат : MPEG Audio
    Версия формата : Version 1
    Профиль формата : Layer 3
    Режим : Joint stereo
    Расширение режима : MS Stereo
    Идентификатор кодека : 55
    Идентификатор кодека/Подсказка : MP3
    Продолжительность : 1 ч. 13 м.
    Вид битрейта : Постоянный
    Битрейт : 192 Кбит/сек
    Каналы : 2 канала
    Частота : 48, 0 КГц
    Метод сжатия : С потерями
    Размер потока : 101 Мбайт (10%)
    Выравнивание : Соединение по промежуткам
    Продолжительность промежутка : 40 мс. (1, 00 видеокадр)
    Время предзагрузки промежутка : 504 мс.


    Скриншоты для ознакомления




    Онлайн видео Черное зеркало



    Черное зеркало/Black Mirror (2014, 2016) HDTVRip/WEBRip (сезон 3, серии 0-6 из 6) BaibaKo
    загрузка...
    Рейтинг →
     (голосов: 1, оценка 3/5, голосовать можно 1 раз )

    Другие торренты по теме:

  • Черное зеркало / Black Mirror (2014) HDTVRip (сезон 3, серии 1 из ) BaibaKo (обновляемая)
  • Черное зеркало / Black Mirror (2014) HDTVRip [H.264 / 720p-LQ] (Сезон 3, эпизод 1 из ) (Кубик в Кубе) (обновляемая)
  • Черное зеркало с Евгением Киселевым (12.02.2016) SATRip [UKR / RUS]
  • Черное зеркало / Black Mirror (2016) WEBRip [H.264 / 720p-LQ] (сезон 3, серии 1 из 6) NewStudio (обновляемая)
  • Black Mirror 2 / Черное зеркало 2 (2010) [Ru] (1.01) License GOG
  • Черное зеркало / Black Mirror (2011) WEB-DLRip 1080p [Сезон 01] (BaibaKo)
  • Black Mirror 3: Final Fear / Черное зеркало 3 (2011) [Ru / En] (1.01) License GOG
  • The Black Mirror / Черное зеркало (2003) [Ru / Multi] (1.0) License GOG [Special Edition]


    • Комментарии (0):

      Информация

      Информация

        Посетители, находящиеся в группе Гости, не могут оставлять комментарии в данной новости.

        ↓ Меню




        ↓ Опрос

        Вы добавили сайт в закладки?
        Да
        Нет


        Top 10 за месяц (Фильмы)