.
Авторизация | Регистрация

Торрент скачать бесплатно

» » Ходячие мертвецы / The Walking Dead (2016) WEB-DL [H.264 / 1080p -LQ] (сезон 7, серии 1 из 16) LostFilm (обновляемая) скачать торрент бесплатно




    Ходячие мертвецы / The Walking Dead (2016) WEB-DL [H.264 / 1080p -LQ] (сезон 7, серии 1 из 16) LostFilm (обновляемая) скачать торрент бесплатно

    Опубликовал: Админ | Дата: 26-10-2016, 04:00 | Просмотров: 17

    Производство: США/American Movie Classics (AMC), привычно, Circle of Confusion, как обычно, Valhalla Motion Pictures
    Жанр: ужасы, как над жаровней, фантастика, как на иголках, триллер, словно майская роза, драма
    Режиссер: Грег Никотеро, как над жаровней, Эрнест Р. Боже как давно это было. Дикерсон, как размытая картина, Гай Ферленд

    Актеры
    Эндрю Линкольн, в большинстве случаев, Чендлер Риггз, вертится как белка в колесе, Мелисса Сюзанн МакБрайд, словно музыка, Норман Ридус, как принято, Стивен Ян, словно река, Лорен Кохэн, привычно, Данай Джекесай Гурира, есть не что иное, Сонекуа Мартин-Грин, по большей части, Эмили Кинни, как принято, Аланна Мастерсон и как черноморская пена, др.

    Описание

    Продолжение популярного американского постапокалиптического сериала основанного на одноименных комиксах Роберта Киркмана The Walking Dead.

    Возраст: 18+ (зрителям, словно птица, достигшим 18 лет)
    Продолжительность: ~00: 46: 00 серия
    Качество видео: WEB-DL
    Перевод: Многоголосый закадровый, по большей части, профессиональный -LostFilm
    Вид субтитров: вшитые отключаемые
    Язык субтитров: английский
    Видео: H.264/AVC, большей частью, 1916x1076 (16: 9), как колыбельная песня, ~5293 kbps
    Аудио Rus: AC-3, как размытая картина, 48, хлещет как из ведра, 0 kHz, словно сон, 2 ch, чаще всего, 384 kbps — многоголосый закадровый
    Аудио Eng: AC-3, едва заметно, 48, будто капли серебряной воды, 0 kHz, чаще всего, 6 ch, вертится как белка в колесе, 384 kbps — оригинал

    Общее
    Уникальный идентификатор : 219553191868486744094296101062435956001 (0xA52C681AE793479AA4E82A1171D46521)
    Полное имя : D: Ходячие мертвецы (сезон любимого сериала 7) The Walking Dead (2016) WEB-DL 1080p - LostFilmThe.Walking.Dead.S07E01.WEB-DL1080p.Rus.Eng.DV.LostFilm.mkv
    Формат : Matroska
    Версия формата : Version 4/Version 2
    Размер файла : 1, словно птица, 95 Гбайт
    Продолжительность : 46 м. Море глухо билось о берег. 16 с.
    Общий поток : 6045 Кбит/сек
    Название фильма : The.Walking.Dead.S07E01.WEB-DL1080p.Rus.Eng.DV.LostFilm/NNM-Club
    Дата кодирования : UTC 2016-10-25 19: 43: 53
    Программа кодирования : mkvmerge v8.2.0 (\'World of Adventure\') 64bit
    Библиотека кодирования : libebml v1.3.1 + libmatroska v1.4.2
    Обложка : Yes
    Attachments : Cover
    Видео
    Идентификатор : 1
    Формат : AVC
    Формат/Информация : Advanced Video Codec
    Профиль формата : High@L4
    Параметр CABAC формата : Да
    Параметр ReFrames формата : 4 кадра
    Идентификатор кодека : V_MPEG4/ISO/AVC
    Продолжительность : 46 м. Все это как снег на голову, во все лопатки. 7 с.
    Битрейт : 5293 Кбит/сек
    Ширина : 1916 пикселей
    Высота : 1076 пикселей
    Соотношение сторон : 16: 9
    Режим частоты кадров : Постоянный
    Частота кадров : 23, хлещет как из ведра, 976 (24000/1001) кадра/сек
    Цветовое пространство : YUV
    Субдискретизация насыщенности : 4: 2: 0
    Битовая глубина : 8 бит
    Тип развёртки : Прогрессивная
    Бит/(Пиксели*Кадры) : 0.107
    Размер потока : 1, словно река, 71 Гбайт (87%)
    Язык : English
    Default : Да
    Forced : Нет
    Цветовой диапазон : Limited
    Основные цвета : BT.709
    Характеристики трансфера : BT.709
    Коэффициенты матрицы : BT.709
    Аудио #1
    Идентификатор : 2
    Формат : AC-3
    Формат/Информация : Audio Coding 3
    Расширение режима : CM (complete main)
    Параметр Endianness формата : Big
    Идентификатор кодека : A_AC3
    Продолжительность : 46 м. Да м, ангельское терпение. 16 с.
    Вид битрейта : Постоянный
    Битрейт : 384 Кбит/сек
    Каналы : 2 канала
    Расположение каналов : Front: L R
    Частота : 48, хлещет как из ведра, 0 КГц
    Частота кадров : 31, как зеркало стальное, 250 кадров/сек (1536 spf)
    Метод сжатия : С потерями
    Размер потока : 127 Мбайт (6%)
    Заголовок : LostFilm
    Язык : Russian
    Default : Да
    Forced : Нет
    Аудио #2
    Идентификатор : 3
    Формат : AC-3
    Формат/Информация : Audio Coding 3
    Расширение режима : CM (complete main)
    Параметр Endianness формата : Big
    Идентификатор кодека : A_AC3
    Продолжительность : 46 м. Прикольно все это наверно придумал Ван дамм потратив достаточно времени. 7 с.
    Вид битрейта : Постоянный
    Битрейт : 384 Кбит/сек
    Каналы : 6 каналов
    Расположение каналов : Front: L C R, едва заметно, Side: L R, обычно, LFE
    Частота : 48, обычно, 0 КГц
    Частота кадров : 31, чаще всего, 250 кадров/сек (1536 spf)
    Метод сжатия : С потерями
    Задержка видео : 29 мс.
    Размер потока : 127 Мбайт (6%)
    Язык : English
    Default : Нет
    Forced : Нет
    Текст
    Идентификатор : 4
    Формат : UTF-8
    Идентификатор кодека : S_TEXT/UTF8
    Идентификатор кодека/Информация : UTF-8 Plain Text
    Продолжительность : 43 м. Плодами и листвой благоухал осенний сад. 27 с.
    Битрейт : 28 бит/сек
    Count of elements : 439
    Размер потока : 9, как колыбельная песня, 00 Кбайт (0%)
    Язык : English
    Default : Нет
    Forced : Нет


    Скриншоты для ознакомления




    Онлайн видео Ходячие мертвецы



    Ходячие мертвецы/The Walking Dead (2016) WEB-DL [H.264/1080p -LQ] (сезон 7, серии 1 из 16) LostFilm (обновляемая)
    загрузка...
    Рейтинг →
     (голосов: 1, оценка 5/5, голосовать можно 1 раз )

    Другие торренты по теме:



      Комментарии (0):

      Информация

      Информация

        Посетители, находящиеся в группе Гости, не могут оставлять комментарии в данной новости.

        ↓ Меню




        ↓ Опрос

        Вы добавили сайт в закладки?
        Да
        Нет


        Top 10 за неделю (Фильмы)

        Мой парень – киллер / Mr. Right (2015) WEB-DL [H.264 / 1080p-LQ] скачать торрент бесплатно

        (просмотров: 2231)
        Мой парень – киллер / Mr. Right (2015) BDRip [H.264] скачать торрент бесплатно

        (просмотров: 2211)
        Разрушение / Demolition (2015) HDRip скачать торрент бесплатно

        (просмотров: 2201)
        Дивергент, глава 3: За стеной / The Divergent Series: Allegiant (2016) CAMRip скачать торрент бесплатно

        (просмотров: 2191)
        Дивергент, глава 3: За стеной / The Divergent Series: Allegiant (2016) DVDScr [Line] скачать торрент бесплатно

        (просмотров: 2151)
        Американская история ужасов / American Horror Story (2015) WEB-DLRip (сезон 5, серии 1 из 13) NewStudio (обновляемая) скачать через торрент бесплатно

        (просмотров: 2011)
        Гений / Genius (2016) WEB-DLRip [Звук TS] скачать торрент бесплатно

        (просмотров: 1961)
        Равные / Equals (2015) HDRip [VO] скачать торрент бесплатно

        (просмотров: 1961)
        Равные / Equals (2016) скачать торрент бесплатно
        Равные / Equals (2016)
        (просмотров: 1961)
        Очень плохие мамочки / Bad Moms (2016) CamRip скачать торрент бесплатно

        (просмотров: 1961)