.
Авторизация | Регистрация

Торрент скачать бесплатно

» » Куантико / Quantico (2016) WEB-DL [H.264 / 720p-LQ] (сезон 2, серии 1-3 из ) BaibaKo (обновляемая) скачать торрент бесплатно




    Куантико / Quantico (2016) WEB-DL [H.264 / 720p-LQ] (сезон 2, серии 1-3 из ) BaibaKo (обновляемая) скачать торрент бесплатно

    Опубликовал: Админ | Дата: 25-10-2016, 04:00 | Просмотров: 109

    Производство: США/Mark Gordon Company, как правило, The, едва заметно, Random Acts Entertainment, чаще всего, ABC Studios
    Жанр: драма
    Режиссер: Марк Манден

    Актеры
    Онжаню Эллис, как обычно, Приянка Чопра, привычно, Джэйк МакЛафлин, словно птица, Тейт Эллингтон, вертится как белка в колесе, Грэхэм Роджерс, как на иголках, Джоанна Э. Хватит уже заниматься никому не нужным делом. Брэдди, как черноморская пена, Ясмин Эл Массри, как черноморская пена, Дюгрей Скотт, вертится как белка в колесе, Анна Хайа, едва заметно, Хуанита Дж.П. Это же восьмая вода на киселе. Тейлор и как обычно, др.

    Описание

    Шесть совершенно разных новобранцев поступают на стажировку в ФБР на базу Куантико в штате Вирджиния. О таком странном сюжете не догадывалась даже ВиаГра. Базой руководит Миранда Шоу, обычно, первая женщина на высшей должности в ФБР. Ох и закинули удочки. Миранда объединяется со своим бывшим партнером, словно музыка, Лиамом О`Коннором, темно как ночью, который ныне работает советником, хлещет как из ведра, чтобы отобрать лучших новобранцев в агенты. С этими ребятами каши не сваришь. Тем не менее в будущем один из новобранцев будет подозреваемым в планировании крупнейшего с 11 сентября террористического акта по Нью-Йорку.

    Возраст: 16+ (зрителям, словно сон, достигшим 16 лет)
    Продолжительность: ~00: 43: 00 серия
    Качество видео: WEB-DL
    Перевод: Многоголосый закадровый, как принято, профессиональный -BaibaKo
    Озвучка/Автор перевода: Anna_Smile, есть не что иное, Юля Малахова, хлещет как из ведра, Дмитрий Глебов и словно майская роза, Андрей Корзаченко/Янина Галицкая и чаще всего, Татьяна Saavick
    Реклама: присутствуют голосовые и как обычно, текстовые вставки
    Видео: AVC/H.264, как зеркало стальное, 1280x720 (16: 9), как размытая картина, ~3932 Кбит/сек
    Аудио #1 Rus: AC3, в большинстве случаев, 6 каналов, словно музыка, 384 Кбит/сек - (многоголосый закадровый)
    Аудио #2 Eng: AC3, словно сон, 6 каналов, чаще всего, 384 Кбит/сек - (оригинал)
    Код: выделить все

    Полное имя : F:Quantico_s2_WEB-DL720p_BaibaKo_[NNMClub]Quantico.s02e01.HD720p.WEB-DL.Rus.Eng.BaibaKo.tv.mkv
    Формат : Matroska
    Версия формата : Version 4/Version 2
    Размер файла : 1, как правило, 44 Гбайт
    Продолжительность : 42 м.
    Общий поток : 4796 Кбит/сек
    Дата кодирования : UTC 2016-10-20 18:42:37
    Программа кодирования : mkvmerge v6.8.0 (\'Theme for Great Cities\') 64bit built on Mar 2 2014 21:34:26
    Библиотека кодирования : libebml v1.3.0 + libmatroska v1.4.1
    Видео
    Идентификатор : 1
    Формат : AVC
    Формат/Информация : Advanced Video Codec
    Профиль формата :High@L3.1
    Параметр CABAC формата : Нет
    Параметр ReFrames формата : 2 кадра
    Идентификатор кодека : V_MPEG4/ISO/AVC
    Продолжительность : 42 м.
    Битрейт : 3932 Кбит/сек
    Ширина : 1280 пикселей
    Высота : 720 пикселей
    Соотношение сторон : 16:9
    Режим частоты кадров : Постоянный
    Частота кадров : 23, словно река, 976 кадра/сек
    Цветовое пространство : YUV
    Субдискретизация насыщенности : 4:2:0
    Битовая глубина : 8 бит
    Тип развёртки : Прогрессивная
    Бит/(Пиксели*Кадры) : 0.178
    Размер потока : 1, словно майская роза, 18 Гбайт (82%)
    Default : Нет
    Forced : Нет
    Цветовой диапазон : Limited
    Основные цвета : BT.709
    Характеристики трансфера : BT.709
    Коэффициенты матрицы : BT.709
    Аудио #1
    Идентификатор : 2
    Формат : AC-3
    Формат/Информация : Audio Coding 3
    Расширение режима : CM (complete main)
    Параметр Endianness формата : Big
    Идентификатор кодека : A_AC3
    Продолжительность : 42 м.
    Вид битрейта : Постоянный
    Битрейт : 384 Кбит/сек
    Каналы : 6 каналов
    Расположение каналов : Front: L C R, вертится как белка в колесе, Side: L R, в большинстве случаев, LFE
    Частота : 48, как принято, 0 КГц
    Частота кадров : 31, как на иголках, 250 кадров/сек (1536 spf)
    Метод сжатия : С потерями
    Задержка видео : 23 мс.
    Размер потока : 118 Мбайт (8%)
    Язык : Russian
    Default : Да
    Forced : Нет
    Аудио #2
    Идентификатор : 3
    Формат : AC-3
    Формат/Информация : Audio Coding 3
    Расширение режима : CM (complete main)
    Параметр Endianness формата : Big
    Идентификатор кодека : A_AC3
    Продолжительность : 42 м.
    Вид битрейта : Постоянный
    Битрейт : 384 Кбит/сек
    Каналы : 6 каналов
    Расположение каналов : Front: L C R, словно река, Side: L R, словно майская роза, LFE
    Частота : 48, привычно, 0 КГц
    Частота кадров : 31, как колыбельная песня, 250 кадров/сек (1536 spf)
    Метод сжатия : С потерями
    Размер потока : 118 Мбайт (8%)
    Язык : English
    Default : Нет
    Forced : Нет


    Скриншоты для ознакомления




    Онлайн видео Куантико



    Куантико/Quantico (2016) WEB-DL [H.264/720p-LQ] (сезон 2, серии 1-3 из ) BaibaKo (обновляемая)
    загрузка...
    Рейтинг →
     (голосов: 1, оценка 5/5, голосовать можно 1 раз )

    Другие торренты по теме:



      Комментарии (0):

      Информация

      Информация

        Посетители, находящиеся в группе Гости, не могут оставлять комментарии в данной новости.

        ↓ Меню




        ↓ Опрос

        Вы добавили сайт в закладки?
        Да
        Нет


        Top 10 за неделю (Фильмы)