.
Авторизация | Регистрация
Хочешь лучшие торренты? Добавь свой email!
Добавить

Торрент скачать бесплатно

» » Люцифер / Lucifer (2016) WEB-DL [H.264 / 1080p-LQ] (сезон 2, серии 1-4 из 13) LostFilm, Jaskier, Кравец, OmskBird, NewStudio (обновляемая) торрент скачать бесплатно




    Люцифер / Lucifer (2016) WEB-DL [H.264 / 1080p-LQ] (сезон 2, серии 1-4 из 13) LostFilm, Jaskier, Кравец, OmskBird, NewStudio (обновляемая) торрент скачать бесплатно

    Опубликовал: Админ | Дата: 25-10-2016, 04:00 | Просмотров: 10

    Производство: США/Aggressive Mediocrity, DC Entertainment, Jerry Bruckheimer Television
    Жанр: фэнтези, драма, криминал
    Режиссер: Нэйтан Хоуп, Майрзи Алмас, Эгил Эгилссон

    Актеры
    Лесли-Энн Брандт, Лорен Джерман, Д.Б. Вудсайд, Том Эллис, Скарлет Эстевез, Кевин Алехандро, Рэйчел Харрис, Кевин О. Ранкин, Локлин Манро, Ивэн Арнольд и др.

    Описание

    Люцифер, эксцентричный Король демонов, заскучал на своем троне и решил посетить Лос-Анджелес, после чего он становится консультантом по расследованию убийств при местном полицейском управлении.

    Возраст: 18+ (зрителям, достигшим 18 лет. запрещено для детей)
    Релиз от: Grandfather61
    Продолжительность: ~00: 44: 00 серия
    Качество видео: WEB-DL
    Перевод: Многоголосый закадровый, профессиональный |Lostfilm, Jaskier. Кравец, OmskBird, NewStudio
    Вид субтитров: вшитые отключаемые
    Язык субтитров: русский, английский
    Видео: AVC/H.264, 1916x1076 (16: 9), ~5200 kbps
    Аудио # 1: AC3, 6 ch, 384 kbps, CBR - LostFilm
    Аудио # 2: AC3, 6 ch, 384 kbps, CBR - Jaskier
    Аудио # 3: AC3, 2 ch, 384 kbps, CBR - Кравец
    Аудио # 4: AC3, 6 ch, 384 kbps, CBR - OmskBird
    Аудио # 5: AC3, 6 ch, 384 kbps, CBR - NewStudio
    Аудио # 6: AC3, 6 ch, 384 kbps, CBR - оригинал

    General
    Unique ID : 233946571094544998537334261166683418099 (0xB000787D8D4A2B85A865A252AAE36DF3)
    Complete name : G: FilmsLucifer.S02.1080p.WEB-DLLucifer.S02E01.1080p.WEB-DL.5xRus.Eng.mkv
    Format : Matroska
    Format version : Version 4/Version 2
    File size : 2.31 GiB
    Duration : 43mn 55s
    Overall bit rate : 7 534 Kbps
    Encoded date : UTC 2016-09-23 10: 29: 31
    Writing application : mkvmerge v9.4.2 (\'So High\') 64bit
    Writing library : libebml v1.3.4 + libmatroska v1.4.5
    Video
    ID : 1
    Format : AVC
    Format/Info : Advanced Video Codec
    Format profile : High@L4
    Format settings, CABAC : Yes
    Format settings, ReFrames : 4 frames
    Codec ID : V_MPEG4/ISO/AVC
    Duration : 43mn 55s
    Bit rate : 5 226 Kbps
    Width : 1 916 pixels
    Height : 1 076 pixels
    Display aspect ratio : 16: 9
    Frame rate mode : Constant
    Frame rate : 23.976 (23976/1000) fps
    Color space : YUV
    Chroma subsampling : 4: 2: 0
    Bit depth : 8 bits
    Scan type : Progressive
    Bits/(Pixel*Frame) : 0.106
    Stream size : 1.60 GiB (69%)
    Language : English
    Default : Yes
    Forced : No
    Color range : Limited
    Color primaries : BT.709
    Transfer characteristics : BT.709
    Matrix coefficients : BT.709
    Audio #1
    ID : 2
    Format : AC-3
    Format/Info : Audio Coding 3
    Mode extension : CM (complete main)
    Format settings, Endianness : Big
    Codec ID : A_AC3
    Duration : 43mn 55s
    Bit rate mode : Constant
    Bit rate : 384 Kbps
    Channel(s) : 6 channels
    Channel positions : Front: L C R, Side: L R, LFE
    Sampling rate : 48.0 KHz
    Frame rate : 31.250 fps (1536 spf)
    Compression mode : Lossy
    Stream size : 121 MiB (5%)
    Title : LostFilm 5.1
    Language : Russian
    Default : Yes
    Forced : No
    Audio #2
    ID : 3
    Format : AC-3
    Format/Info : Audio Coding 3
    Mode extension : CM (complete main)
    Format settings, Endianness : Big
    Codec ID : A_AC3
    Duration : 43mn 55s
    Bit rate mode : Constant
    Bit rate : 384 Kbps
    Channel(s) : 6 channels
    Channel positions : Front: L C R, Side: L R, LFE
    Sampling rate : 48.0 KHz
    Frame rate : 31.250 fps (1536 spf)
    Compression mode : Lossy
    Stream size : 121 MiB (5%)
    Title : Jaskier 5.1
    Language : Russian
    Default : No
    Forced : No
    Audio #3
    ID : 4
    Format : AC-3
    Format/Info : Audio Coding 3
    Mode extension : CM (complete main)
    Format settings, Endianness : Big
    Codec ID : A_AC3
    Duration : 43mn 55s
    Bit rate mode : Constant
    Bit rate : 384 Kbps
    Channel(s) : 2 channels
    Channel positions : Front: L R
    Sampling rate : 48.0 KHz
    Frame rate : 31.250 fps (1536 spf)
    Compression mode : Lossy
    Stream size : 121 MiB (5%)
    Title : Kravec
    Language : Russian
    Default : No
    Forced : No
    Audio #4
    ID : 5
    Format : AC-3
    Format/Info : Audio Coding 3
    Mode extension : CM (complete main)
    Format settings, Endianness : Big
    Codec ID : A_AC3
    Duration : 43mn 55s
    Bit rate mode : Constant
    Bit rate : 384 Kbps
    Channel(s) : 6 channels
    Channel positions : Front: L C R, Side: L R, LFE
    Sampling rate : 48.0 KHz
    Frame rate : 31.250 fps (1536 spf)
    Compression mode : Lossy
    Stream size : 121 MiB (5%)
    Title : OmskBird 5.1
    Language : Russian
    Default : No
    Forced : No
    Audio #5
    ID : 6
    Format : AC-3
    Format/Info : Audio Coding 3
    Mode extension : CM (complete main)
    Format settings, Endianness : Big
    Codec ID : A_AC3
    Duration : 43mn 55s
    Bit rate mode : Constant
    Bit rate : 384 Kbps
    Channel(s) : 6 channels
    Channel positions : Front: L C R, Side: L R, LFE
    Sampling rate : 48.0 KHz
    Frame rate : 31.250 fps (1536 spf)
    Compression mode : Lossy
    Stream size : 121 MiB (5%)
    Title : NewStudio 5.1
    Language : Russian
    Default : No
    Forced : No
    Audio #6
    ID : 7
    Format : AC-3
    Format/Info : Audio Coding 3
    Mode extension : CM (complete main)
    Format settings, Endianness : Big
    Codec ID : A_AC3
    Duration : 43mn 55s
    Bit rate mode : Constant
    Bit rate : 384 Kbps
    Channel(s) : 6 channels
    Channel positions : Front: L C R, Side: L R, LFE
    Sampling rate : 48.0 KHz
    Frame rate : 31.250 fps (1536 spf)
    Compression mode : Lossy
    Stream size : 121 MiB (5%)
    Title : original 5.1
    Language : English
    Default : No
    Forced : No
    Text #1
    ID : 8
    Format : UTF-8
    Codec ID : S_TEXT/UTF8
    Codec ID/Info : UTF-8 Plain Text
    Duration : 43mn 21s
    Bit rate : 154 bps
    Count of elements : 959
    Stream size : 49.0 KiB (0%)
    Title : rus (notabenoid)
    Language : Russian
    Default : No
    Forced : No
    Text #2
    ID : 9
    Format : UTF-8
    Codec ID : S_TEXT/UTF8
    Codec ID/Info : UTF-8 Plain Text
    Duration : 43mn 8s
    Bit rate : 100 bps
    Count of elements : 1081
    Stream size : 31.7 KiB (0%)
    Title : CC
    Language : English
    Default : No
    Forced : No


    Скриншоты для ознакомления




    Онлайн видео Люцифер



    Люцифер/Lucifer (2016) WEB-DL [H.264/1080p-LQ] (сезон 2, серии 1-4 из 13) LostFilm, Jaskier, Кравец, OmskBird, NewStudio (обновляемая)
    загрузка...
    Рейтинг →
     (голосов: 1, оценка 5/5, голосовать можно 1 раз )

    Другие торренты по теме:

  • Люцифер / Lucifer (2015) HDTV [H.264 / 720p-LQ] (сезон 1, серия 1 из ) [EN / RU, EN Sub] скачать через торрент бесплатно
  • Люцифер / Lucifer (2015) HDTV [H.264 / 1080p] (сезон 1, серии 1 из ) NewStudio (обновляемая) скачать через торрент бесплатно
  • Люцифер / Lucifer (2015) HDTVRip (сезон 1, серия 1 из ) (NewStudio) (обновляемая) скачать через торрент бесплатно
  • Люцифер / Lucifer (2015) HDTV [H.264 / 720p-LQ] (сезон 1, серия 1 из ) (NewStudio) (обновляемая) скачать через торрент бесплатно
  • Люцифер / Lucifer (2015) WEB-DLRip (сезон 1, серия 1 из 13) Alternative Production (обновляемая) скачать через торрент бесплатно
  • Люцифер / Lucifer (2016) WEB-DL [H.264 / 720p-LQ] (сезон 1, серии 1 из 13) BaibaKo (обновляемая)
  • Люцифер / Lucifer (2015) WEB-DLRip (сезон 1, серии 1 из 13) BaibaKo (обновляемая)
  • Люцифер / Lucifer (2016) WEB-DLRip [H.264] (сезон 1, серии 1 из 13) BaibaKo [MP4|720x400]


    • Комментарии (0):

      Информация

      Информация

        Посетители, находящиеся в группе Гости, не могут оставлять комментарии в данной новости.

        ↓ Меню




        ↓ Опрос

        Вы добавили сайт в закладки?
        Да
        Нет


        Top 10 за месяц (Фильмы)