.
Авторизация | Регистрация
Хочешь лучшие торренты? Добавь свой email!
Добавить

Торрент скачать бесплатно

» » Сверхъестественное / Supernatural (2016) WEB-DLRip (сезон 12, серии 1 из 23) NewStudio & NovaFilm (обновляемая) торрент скачать бесплатно




    Сверхъестественное / Supernatural (2016) WEB-DLRip (сезон 12, серии 1 из 23) NewStudio & NovaFilm (обновляемая) торрент скачать бесплатно

    Опубликовал: Админ | Дата: 25-10-2016, 04:00 | Просмотров: 15

    Производство: США
    Жанр: ужасы, фэнтези, триллер, драма
    Режиссер: Эрик Крипке

    Актеры
    Джаред Падалеки, Дженсен Эклс, Джим Бивер, Миша Коллинз, Марк Шеппард, Марк Пеллегрино, Женевьев Падалеки, Кэти Кэссиди, Джеймс Патрик Стюарт, Саманта Феррис и др.

    Описание

    Сериал рассказывает о приключениях братьев Сэма и Дина Винчестеров, которые путешествуют по Соединённым Штатам на чёрном автомобиле Chevrolet Impala 1967 года, расследуют паранормальные явления, многие из которых основаны на американских городских легендах и фольклоре, и сражаются с порождениями зла, такими как демоны и призраки.

    Возраст: 16+ (зрителям, достигшим 16 лет)
    Релиз от: NewStudio NovaFilm
    Продолжительность: ~00: 42: 00 серия
    Качество видео: WEB-DLRip
    Перевод: Многоголосый закадровый, профессиональный - NewStudio NovaFilm
    Реклама: присутствуют аудио вставки рекламы
    Видео: Xvid, 720x400, ~1419 kbps
    Аудио#1 Rus: AC3, 2 ch, 192 kbps, CBR - многоголосый закадровый
    Аудио#2 Eng: AC3, 2 ch, 192 kbps, CBR - оригинал

    General
    Complete name : D: supernatural.s12e01.webdl.rus.eng.newstudio.tv.novafilm.tv.avi
    Format : AVI
    Format/Info : Audio Video Interleave
    File size : 553 MiB
    Duration : 42 min 32 s
    Overall bit rate : 1 818 kb/s
    Writing application : VirtualDubMod 1.5.10.2 (build 2540/release)
    Writing library : VirtualDubMod build 2540/release
    Video
    ID : 0
    Format : MPEG-4 Visual
    Format profile : Advanced Simple@L5
    Format settings, BVOP : 2
    Format settings, QPel : Yes
    Format settings, GMC : No warppoints
    Format settings, Matrix : Default (MPEG)
    Muxing mode : Packed bitstream
    Codec ID : XVID
    Codec ID/Hint : XviD
    Duration : 42 min 32 s
    Bit rate : 1 419 kb/s
    Width : 720 pixels
    Height : 400 pixels
    Display aspect ratio : 16: 9
    Frame rate : 23.976 (23976/1000) FPS
    Color space : YUV
    Chroma subsampling : 4: 2: 0
    Bit depth : 8 bits
    Scan type : Progressive
    Compression mode : Lossy
    Bits/(Pixel*Frame) : 0.206
    Stream size : 432 MiB (78%)
    Writing library : XviD 73
    Audio #1
    ID : 1
    Format : AC-3
    Format/Info : Audio Coding 3
    Mode extension : CM (complete main)
    Format settings, Endianness : Big
    Codec ID : 2000
    Duration : 42 min 32 s
    Bit rate mode : Constant
    Bit rate : 192 kb/s
    Channel(s) : 2 channels
    Channel positions : Front: L R
    Sampling rate : 48.0 kHz
    Frame rate : 31.250 FPS (1536 spf)
    Compression mode : Lossy
    Stream size : 58.4 MiB (11%)
    Alignment : Split accross interleaves
    Interleave, duration : 42 ms (1.00 video frame)
    Interleave, preload duratio : 500 ms
    Audio #2
    ID : 2
    Format : AC-3
    Format/Info : Audio Coding 3
    Mode extension : CM (complete main)
    Format settings, Endianness : Big
    Codec ID : 2000
    Duration : 42 min 32 s
    Bit rate mode : Constant
    Bit rate : 192 kb/s
    Channel(s) : 2 channels
    Channel positions : Front: L R
    Sampling rate : 48.0 kHz
    Frame rate : 31.250 FPS (1536 spf)
    Compression mode : Lossy
    Stream size : 58.4 MiB (11%)
    Alignment : Split accross interleaves
    Interleave, duration : 42 ms (1.00 video frame)
    Interleave, preload duratio : 500 ms


    Скриншоты для ознакомления




    Онлайн видео Сверхъестественное



    Сверхъестественное/Supernatural (2016) WEB-DLRip (сезон 12, серии 1 из 23) NewStudio & NovaFilm (обновляемая)
    загрузка...
    Рейтинг →
     (голосов: 1, оценка 3/5, голосовать можно 1 раз )

    Другие торренты по теме:

  • Сверхъестественное / Supernatural (2017) WEB-DL [H.264 / 720p-LQ] (сезон 13, серии 1 из 23) NewStudio & NovaFilm [AD] (обновляемая)
  • Сверхъестественное / Supernatural (2017) WEB-DLRip (сезон 13, серии 1 из 23) NewStudio & NovaFilm [AD] (обновляемая)
  • Сверхъестественное / Supernatural (2017) HDTVRip (сезон 13, серии 1 из 23) [EN / RU, EN Sub] (обновляемая)
  • Сверхъестественное / Supernatural (2017) HDTVRip [H.264 / 720p-LQ] (сезон 13, серии 1 из 23) [EN / RU, EN Sub] (обновляемая)
  • Сверхъестественное / Supernatural (2017) HDTVRip [H.264 / 1080p-LQ] (сезон 13, серии 1 из 23) [EN / RU, EN Sub] (обновляемая)
  • Сверхъестественное / Supernatural (2014) WEB-DLRip [720p] (сезон 10, серии 1 из ) LostFilm (oбновляемая)
  • Сверхъестественное / Supernatural (2014-2015) WEB-DLRip [H.264 / 1080p-LQ] (Сезон 10, серии 1 из 23) LostFilm (oбновляемая) скачать через торрент бесплатно
  • Сверхъестественное / Supernatural (2014) WEB-DLRip (сезон 10, серии 1 из ) NewStudio + NovaFiLM (oбновляемая) скачать через торрент бесплатно


    • Комментарии (0):

      Информация

      Информация

        Посетители, находящиеся в группе Гости, не могут оставлять комментарии в данной новости.

        ↓ Меню




        ↓ Опрос

        Вы добавили сайт в закладки?
        Да
        Нет


        Top 10 за месяц (Фильмы)