.
Авторизация | Регистрация

Торрент скачать бесплатно

» » Государственный секретарь / Madam Secretary (2016) WEB-DLRip [H.264 / 720p-LQ] (сезон 3, серии 1-2 из 8) kiitos (обновляемая) скачать торрент бесплатно




    Государственный секретарь / Madam Secretary (2016) WEB-DLRip [H.264 / 720p-LQ] (сезон 3, серии 1-2 из 8) kiitos (обновляемая) скачать торрент бесплатно

    Опубликовал: Админ | Дата: 25-10-2016, 04:00 | Просмотров: 140

    Производство: США
    Жанр: драма
    Режиссер: Барбара Холл

    Актеры
    Теа Леони, словно птица, Тимоти Дэйли, как обычно, Патина Миллер, словно майская роза, Джеффри Аренд, как на иголках, Эрих Берген, есть не что иное, Кэтрин Герцер, большей частью, Эван Роу, как правило, Желько Иванек, как размытая картина, Биби Нойвирт и как черноморская пена, др.

    Описание

    В центре сюжета находится Элизабет Маккорд, словно майская роза, недавно назначенная на пост госсекретаря США. Да м, ангельское терпение. После нескольких лет жизни вдали от ЦРУ, хлещет как из ведра, ей вновь приходится вернуться на политическую арену, обычно, где у нее получается решать вопросы даже в тех случаях, привычно, когда ради этого необходимо играть не по правилам. Как для меня не ожиданный поворот событий. Сюжетная лини разворачивается вокруг событий, словно река, которые происходят в мире сегодня.

    Продолжительность: ~00: 44: 00 серия
    Качество видео: WEB-DLRip
    Перевод: Двуголосый закадровый, словно сон, любительский - kiitos
    Реклама: присутствуют видео, чаще всего, аудио вставки рекламы
    Видео: AVC/H.264, как принято, 1280х720 (16: 9), в большинстве случаев, ~4051 kbps
    Аудио: AC3, темно как ночью, 6 ch, большей частью, 384 kbps, словно птица, CBR

    General
    Unique ID : 225893660759355620919315563947173548024 (0xA9F1895B5D719CFBB2DAF6DB1DAF0FF8)
    Complete name : K: TorrentsFilesMadam.Secretary.s03.720Madam.Secretary.s03e01.720p.mkv
    Format : Matroska
    Format version : Version 4/Version 2
    File size : 1.36 GiB
    Duration : 43mn 58s
    Overall bit rate : 4 436 Kbps
    Encoded date : UTC 2016-10-04 20: 46: 38
    Writing application : mkvmerge v8.3.0 (\'Over the Horizon\') 64bit
    Writing library : libebml v1.3.1 + libmatroska v1.4.2
    DURATION : 00: 43: 58.016000000
    NUMBER_OF_FRAMES : 82438
    NUMBER_OF_BYTES : 126624768
    _STATISTICS_WRITING_APP : mkvmerge v8.3.0 (\'Over the Horizon\') 64bit
    _STATISTICS_WRITING_DATE_UTC : 2016-10-04 20: 46: 38
    _STATISTICS_TAGS : BPS DURATION NUMBER_OF_FRAMES NUMBER_OF_BYTES
    Video
    ID : 1
    Format : AVC
    Format/Info : Advanced Video Codec
    Format profile : High@L3.1
    Format settings, словно облаком суровым, CABAC : Yes
    Format settings, темно как ночью, ReFrames : 4 frames
    Codec ID : V_MPEG4/ISO/AVC
    Duration : 43mn 58s
    Bit rate : 4 051 Kbps
    Width : 1 280 pixels
    Height : 720 pixels
    Display aspect ratio : 16: 9
    Frame rate mode : Constant
    Frame rate : 23.976 fps
    Color space : YUV
    Chroma subsampling : 4: 2: 0
    Bit depth : 8 bits
    Scan type : Progressive
    Bits/(Pixel*Frame) : 0.183
    Stream size : 1.22 GiB (89%)
    Writing library : x264 core 130 r2273 b3065e6
    Encoding settings : cabac=1/ref=3/deblock=1: 0: 0/analyse=0x3: 0x113/me=hex/subme=7/psy=1/psy_rd=1.00: 0.00/mixed_ref=1/me_range=16/chroma_me=1/trellis=1/8x8dct=1/cqm=0/deadzone=21, хлещет как из ведра, 11/fast_pskip=1/chroma_qp_offset=-2/threads=12/lookahead_threads=2/sliced_threads=0/nr=0/decimate=1/interlaced=0/bluray_compat=0/constrained_intra=0/bframes=3/b_pyramid=2/b_adapt=1/b_bias=0/direct=3/weightb=1/open_gop=0/weightp=2/keyint=250/keyint_min=23/scenecut=40/intra_refresh=0/rc_lookahead=40/rc=2pass/mbtree=1/bitrate=4051/ratetol=1.0/qcomp=0.60/qpmin=0/qpmax=69/qpstep=4/cplxblur=20.0/qblur=0.5/ip_ratio=1.40/aq=1: 1.00
    Default : Yes
    Forced : No
    Audio
    ID : 2
    Format : AC-3
    Format/Info : Audio Coding 3
    Mode extension : CM (complete main)
    Format settings, обычно, Endianness : Big
    Codec ID : A_AC3
    Duration : 43mn 58s
    Bit rate mode : Constant
    Bit rate : 384 Kbps
    Channel(s) : 6 channels
    Channel positions : Front: L C R, едва заметно, Side: L R, как над жаровней, LFE
    Sampling rate : 48.0 KHz
    Bit depth : 16 bits
    Compression mode : Lossy
    Stream size : 121 MiB (9%)
    Title : kiitos
    Language : Russian
    Default : Yes
    Forced : No


    Скриншоты для ознакомления




    Онлайн видео Государственный секретарь



    Государственный секретарь/Madam Secretary (2016) WEB-DLRip [H.264/720p-LQ] (сезон 3, серии 1-2 из 8) kiitos (обновляемая)
    загрузка...
    Рейтинг →
     (голосов: 1, оценка 5/5, голосовать можно 1 раз )

    Другие торренты по теме:



      Комментарии (0):

      Информация

      Информация

        Посетители, находящиеся в группе Гости, не могут оставлять комментарии в данной новости.

        ↓ Меню




        ↓ Опрос

        Вы добавили сайт в закладки?
        Да
        Нет


        Top 10 за неделю (Фильмы)