.
Авторизация | Регистрация
Хочешь лучшие торренты? Добавь свой email!
Добавить

Торрент скачать бесплатно

» » Нулевой канал / Канал Зеро / Channel Zero (2016) WEB-DL [H.264 / 720p-LQ] (сезон 1, серии 1-2 из 6) BaibaKo (обновляемая) торрент скачать бесплатно




    Нулевой канал / Канал Зеро / Channel Zero (2016) WEB-DL [H.264 / 720p-LQ] (сезон 1, серии 1-2 из 6) BaibaKo (обновляемая) торрент скачать бесплатно

    Опубликовал: Админ | Дата: 25-10-2016, 04:00 | Просмотров: 17

    Производство: США, Universal Cable Productions
    Жанр: ужасы, триллер, драма, детектив
    Режиссер: Крэйг Уилльям Макнейлл

    Актеры
    Пол Шнайдер, Фиона Шоу, Шон Бенсон, Натали Браун, Кассандра Консильо, Луиза Д’Оливера, Эбигейл Пнёвски, Лука Вийясис, Кинэн Леманн, Лиэм Маршан и др.

    Описание

    Первый сезон любимого сериала под названием Candle Cove станет телеадаптацией историй Криса Штрауба – популярного коллекционера страшилок, кочующих по интернету. Главный герой истории страдает от навязчивых воспоминаний о таинственной детской телепрограмме 80-х годов. А также от растущих подозрений по поводу той зловещей роли, которую сыграла эта передача в серии кошмарных и смертоносных событий из детства главного героя.

    Дата мировой премьеры: 11 октября 2016
    Продолжительность: ~ 00: 43: 00 серия
    Качество видео: WEB-DL
    Перевод: Профессиональный многоголосый закадровый -BaibaKo
    Озвучка: Светлана Доманова, Юлия Котурбаш, Дмитрий Нежельский и Акмал Гурезов
    Автор перевода: vipere
    Вид субтитров: вшитые отключаемые
    Язык субтитров: английский
    Видео: AVC/H.264, 1280x720 (16: 9), ~3957 Kbps
    Аудио Rus: AC3, 384 kbps, 6 ch, 48 kHz
    Аудио Eng: AC3, 384 kbps, 6 ch, 48 kHz
    Общее
    Channel Zero - Канал Зеро. Сезон 1. BaibaKo. 720pChannel.Zero.s01e01.WEB-DL.720p.BaibaKo.mkv
    Формат : Matroska
    Версия формата : Version 4/Version 2
    Размер файла : 1, 50 Гбайт
    Продолжительность : 44 м.
    Общий поток : 4821 Кбит/сек
    Название фильма : Channel Zero s01e01 @ NNM-Club
    Дата кодирования : UTC 2016-10-22 09: 26: 22
    Программа кодирования : mkvmerge v6.9.1 (\'Blue Panther\') 64bit built on Apr 18 2014 18: 23: 38
    Библиотека кодирования : libebml v1.3.0 + libmatroska v1.4.1
    Видео
    Идентификатор : 1
    Формат : AVC
    Формат/Информация : Advanced Video Codec
    Профиль формата : High@L3.1
    Параметр CABAC формата : Нет
    Параметр ReFrames формата : 2 кадра
    Идентификатор кодека : V_MPEG4/ISO/AVC
    Продолжительность : 44 м.
    Битрейт : 3957 Кбит/сек
    Ширина : 1280 пикселей
    Высота : 720 пикселей
    Соотношение сторон : 16: 9
    Режим частоты кадров : Постоянный
    Частота кадров : 23, 976 кадра/сек
    Цветовое пространство : YUV
    Субдискретизация насыщенности : 4: 2: 0
    Битовая глубина : 8 бит
    Тип развёртки : Прогрессивная
    Бит/(Пиксели*Кадры) : 0.179
    Размер потока : 1, 23 Гбайт (82%)
    Язык : English
    Default : Да
    Forced : Нет
    Основные цвета : BT.709
    Характеристики трансфера : BT.709
    Коэффициенты матрицы : BT.709
    colour_range : Limited
    Аудио #1
    Идентификатор : 2
    Формат : AC-3
    Формат/Информация : Audio Coding 3
    Расширение режима : CM (complete main)
    Параметр Endianness формата : Big
    Идентификатор кодека : A_AC3
    Продолжительность : 44 м.
    Вид битрейта : Постоянный
    Битрейт : 384 Кбит/сек
    Каналы : 6 каналов
    Расположение каналов : Front: L C R, Side: L R, LFE
    Частота : 48, 0 КГц
    Битовая глубина : 16 бит
    Метод сжатия : С потерями
    Размер потока : 122 Мбайт (8%)
    Язык : Russian
    Default : Да
    Forced : Нет
    Аудио #2
    Идентификатор : 3
    Формат : AC-3
    Формат/Информация : Audio Coding 3
    Расширение режима : CM (complete main)
    Параметр Endianness формата : Big
    Идентификатор кодека : A_AC3
    Продолжительность : 44 м.
    Вид битрейта : Постоянный
    Битрейт : 384 Кбит/сек
    Каналы : 6 каналов
    Расположение каналов : Front: L C R, Side: L R, LFE
    Частота : 48, 0 КГц
    Битовая глубина : 16 бит
    Метод сжатия : С потерями
    Размер потока : 122 Мбайт (8%)
    Язык : English
    Default : Нет
    Forced : Нет
    Текст
    Идентификатор : 4
    Формат : UTF-8
    Идентификатор кодека : S_TEXT/UTF8
    Идентификатор кодека/Информация : UTF-8 Plain Text
    Язык : English
    Default : Нет
    Forced : Нет


    Скриншоты для ознакомления




    Онлайн видео Нулевой канал



    Нулевой канал/Канал Зеро/Channel Zero (2016) WEB-DL [H.264/720p-LQ] (сезон 1, серии 1-2 из 6) BaibaKo (обновляемая)
    загрузка...
    Рейтинг →
     (голосов: 1, оценка 5/5, голосовать можно 1 раз )

    Другие торренты по теме:

  • Нулевой канал / Канал Зеро / Channel Zero (2016) WEB-DL [H.264 / 720p-LQ] (сезон 1, серии 1-2 из 6) Кравец (обновляемая)
  • Нулевой канал / Канал Зеро / Channel Zero (2016) WEB-DL [H.264 / 1080p-LQ] (сезон 1, серии 1-2 из 6) Кравец (обновляемая)
  • Нулевой канал / Канал Зеро / Channel Zero (2016) WEB-DL [H.264 / 1080p-LQ] (сезон 1, серии 1-2 из 6) BaibaKo (обновляемая)
  • Нулевой канал / Канал Зеро / Channel Zero (2016) WEB-DLRip (сезон 1, серии 1-2 из 6) BaibaKo (обновляемая)
  • Нулевой взвод / Сектор Зеро / Section Zero (2016) BDRip [H.264 / 720p-LQ] (сезон 1, серии 1-8 из 8) Первый канал


    • Комментарии (0):

      Информация

      Информация

        Посетители, находящиеся в группе Гости, не могут оставлять комментарии в данной новости.

        ↓ Меню




        ↓ Опрос

        Вы добавили сайт в закладки?
        Да
        Нет


        Top 10 за месяц (Фильмы)