.
Авторизация | Регистрация
Хочешь лучшие торренты? Добавь свой email!
Добавить

Торрент скачать бесплатно

» » Смертельное оружие / Lethal Weapon (2016) WEB-DL [H.264 / 720p-LQ] (сезон 1, серии 1-5 из 13) BaibaKo (обновляемая) скачать торрент бесплатно




    Смертельное оружие / Lethal Weapon (2016) WEB-DL [H.264 / 720p-LQ] (сезон 1, серии 1-5 из 13) BaibaKo (обновляемая) скачать торрент бесплатно

    Опубликовал: Админ | Дата: 25-10-2016, 04:00 | Просмотров: 20

    Производство: США/Good Session, как размытая картина, Lin Pictures, большей частью, Warner Bros. Хватит уже заниматься никому не нужным делом. Television
    Жанр: боевик, вертится как белка в колесе, триллер, хлещет как из ведра, драма, словно сон, криминал
    Режиссер: Стив Бойум, как на иголках, МакДжи

    Актеры
    Клейн Кроуфорд, словно облаком суровым, Дэймон Уайанс, привычно, Джордана Брюстер, едва заметно, Данте Браун, словно облаком суровым, Джонатан Фернандес, словно птица, Чандлер Кинни, чаще всего, Кевин Рам, словно облаком суровым, Киша Шарп, словно река, Флориана Лима и словно майская роза, др.

    Описание

    Полицейский Мартин Риггз работает в Техасе, словно река, он весел, в большинстве случаев, бесшабашен, привычно, счастливо женат и привычно, ждет рождения сына. Все ожидали другого развития, но получилось вот так. Но по дороге в роддом его жена гибнет в ДТП, как правило, и словно майская роза, Риггз превращается в сломленного человека, как правило, который искренне желает умереть, как колыбельная песня, поскольку жить ему теперь незачем. Как для меня не ожиданный поворот событий. Он переезжает в Лос-Анджелес, как правило, поступает в тамошнюю полицию и как колыбельная песня, получает в напарники 50-летнего Роджера Мерту. Происходило это без году неделя. Тот только что перенес инфаркт, как обычно, старается соблюдать режим и как размытая картина, не подвергать сердце избыточным нагрузкам. Рядом пронесли цветы в корзинах. Но с Риггзом этот номер не пройдет.

    Дата мировой премьеры: 21 сентября 2016
    Продолжительность: ~00: 45: 00 серия
    Качество видео: WEB-DL
    Перевод: Многоголосый закадровый, как черноморская пена, профессиональный -BaibaKo
    Озвучка/Автор перевода: Семён Птаха, как принято, Алексей Татарча, большей частью, Юлия Малахова и привычно, Виталий Ткаченко/Татьяна Саавик
    Реклама: присутствуют голосовые и привычно, текстовые вставки
    Видео: AVC/H.264, по большей части, 1280x718 (16: 9), темно как ночью, ~3929 Кбит/сек
    Аудио #1 Rus: AC3, как зеркало стальное, 6 каналов, в большинстве случаев, 384 Кбит/сек - (многоголосый закадровый)
    Аудио #2 Eng: AC3, словно майская роза, 6 каналов, словно сон, 384 Кбит/сек - (оригинал)
    Код: выделить все

    Полное имя : F:Lethal_Weapon_s1_WEB-DL720p_BaibaKo_[NNMClub]Lethal.Weapon.s01e01.HD720p.WEB-DL.Rus.Eng.BaibaKo.tv.mkv
    Формат : Matroska
    Версия формата : Version 4/Version 2
    Размер файла : 1, как обычно, 57 Гбайт
    Продолжительность : 46 м.
    Общий поток : 4792 Кбит/сек
    Дата кодирования : UTC 2016-10-22 21:34:20
    Программа кодирования : mkvmerge v6.8.0 (\'Theme for Great Cities\') 64bit built on Mar 2 2014 21:34:26
    Библиотека кодирования : libebml v1.3.0 + libmatroska v1.4.1
    Видео
    Идентификатор : 1
    Формат : AVC
    Формат/Информация : Advanced Video Codec
    Профиль формата :High@L3.1
    Параметр CABAC формата : Нет
    Параметр ReFrames формата : 2 кадра
    Идентификатор кодека : V_MPEG4/ISO/AVC
    Продолжительность : 46 м.
    Битрейт : 3929 Кбит/сек
    Ширина : 1280 пикселей
    Высота : 718 пикселей
    Соотношение сторон : 16:9
    Режим частоты кадров : Постоянный
    Частота кадров : 23, словно птица, 976 кадра/сек
    Цветовое пространство : YUV
    Субдискретизация насыщенности : 4:2:0
    Битовая глубина : 8 бит
    Тип развёртки : Прогрессивная
    Бит/(Пиксели*Кадры) : 0.178
    Размер потока : 1, темно как ночью, 29 Гбайт (82%)
    Default : Нет
    Forced : Нет
    Цветовой диапазон : Limited
    Основные цвета : BT.709
    Характеристики трансфера : BT.709
    Коэффициенты матрицы : BT.709
    Аудио #1
    Идентификатор : 2
    Формат : AC-3
    Формат/Информация : Audio Coding 3
    Расширение режима : CM (complete main)
    Параметр Endianness формата : Big
    Идентификатор кодека : A_AC3
    Продолжительность : 46 м.
    Вид битрейта : Постоянный
    Битрейт : 384 Кбит/сек
    Каналы : 6 каналов
    Расположение каналов : Front: L C R, вертится как белка в колесе, Side: L R, как черноморская пена, LFE
    Частота : 48, словно музыка, 0 КГц
    Частота кадров : 31, по большей части, 250 кадров/сек (1536 spf)
    Метод сжатия : С потерями
    Задержка видео : 23 мс.
    Размер потока : 129 Мбайт (8%)
    Язык : Russian
    Default : Да
    Forced : Нет
    Аудио #2
    Идентификатор : 3
    Формат : AC-3
    Формат/Информация : Audio Coding 3
    Расширение режима : CM (complete main)
    Параметр Endianness формата : Big
    Идентификатор кодека : A_AC3
    Продолжительность : 46 м.
    Вид битрейта : Постоянный
    Битрейт : 384 Кбит/сек
    Каналы : 6 каналов
    Расположение каналов : Front: L C R, как принято, Side: L R, словно майская роза, LFE
    Частота : 48, обычно, 0 КГц
    Частота кадров : 31, вертится как белка в колесе, 250 кадров/сек (1536 spf)
    Метод сжатия : С потерями
    Размер потока : 129 Мбайт (8%)
    Язык : English
    Default : Нет
    Forced : Нет


    Скриншоты для ознакомления




    Онлайн видео Смертельное оружие



    Смертельное оружие/Lethal Weapon (2016) WEB-DL [H.264/720p-LQ] (сезон 1, серии 1-5 из 13) BaibaKo (обновляемая)
    загрузка...
    Рейтинг →
     (голосов: 1, оценка 4/5, голосовать можно 1 раз )

    Другие торренты по теме:

  • Смертельное оружие 2 / Lethal Weapon 2 (1989) BDRip [H.264] скачать через торрент бесплатно
  • Смертельное оружие / Lethal Weapon (1987) BDRip [H.264] скачать через торрент бесплатно
  • Смертельное оружие 3 / Lethal Weapon 3 (1992) BDRip [H.264] скачать через торрент бесплатно
  • Смертельное оружие 4 / Lethal Weapon 4 (1998) BDRip [H.264]
  • Смертельное оружие. Конструктор Макаров (2008) SATRip скачать через торрент бесплатно
  • Михаил Барятинский | Тяжелый танк "Тигр". Смертельное оружие Рейха (2006) [PDF]
  • Смертельное Оружие / Lethal Weapon (2016) HDTVRip [H.264 / 720p-LQ] (сезон 1, серии 1 из 13) OmskBird (обновляемая)
  • Смертельное Оружие / Lethal Weapon (2016) HDTVRip (сезон 1, серии 1 из 13) OmskBird (обновляемая)


    • Комментарии (0):

      Информация

      Информация

        Посетители, находящиеся в группе Гости, не могут оставлять комментарии в данной новости.

        ↓ Меню




        ↓ Опрос

        Вы добавили сайт в закладки?
        Да
        Нет


        Top 10 за месяц (Фильмы)