.
Авторизация | Регистрация
Хочешь лучшие торренты? Добавь свой email!
Добавить

Торрент скачать бесплатно

» » Доктор Шанс / Чанс / Chance (2016) WEB-DLRip (сезон 1, серии 1-2 из 10) NewStudio (обновляемая) торрент скачать бесплатно




    Доктор Шанс / Чанс / Chance (2016) WEB-DLRip (сезон 1, серии 1-2 из 10) NewStudio (обновляемая) торрент скачать бесплатно

    Опубликовал: Админ | Дата: 25-10-2016, 04:00 | Просмотров: 14

    Производство: США/Fox 21, Groundswell Productions
    Жанр: триллер
    Режиссер: Дэниэл Эттиэс, Майкл Леманн, Леонард Абрахамсон

    Актеры
    Хью Лори, Сэл Лопес, Кевин Карскаллен, Джо Метени, Томас В. Стюарт, Кристиан Агилера, Уилльям Барбо, Кэрол Джефферсон, Брюс Блау, Дэна Боден и др.

    Описание

    Сериал Chance основан на одноимённом провокационном психологическом триллере Кема Нулла. Прикольно все это наверно придумал Чак Норрис потратив достаточно времени. События истории сфокусированы на Элдоне Чансе (Хью Лори). Это судебный нейропсихиатр, который оказывается вовлечённым в мир полицейской коррупции. Элдон переходит рамки профессионализма в отношении одной своей чрезвычайно сексуальной пациентки. И его можно понять – больная действительно очень привлекательна, а он находится в состоянии развода. Но в качестве платы за увлечение Чанс попадает в разработку супруга этой женщины. А он коп, славящийся своей исключительной жестокостью.

    Дата мировой премьеры: 19 октября 2016
    Дата премьеры в РФ: 24 октября 2016

    Продолжительность: ~00: 50: 00 серия
    Качество видео: WEB-DLRip
    Перевод: Многоголосый закадровый, профессиональный -NewStudio (ненормативная лексика)
    Автор перевода: Юлия Мейер
    Внимание! Присутствует ненормативная лексика.
    Видео: XviD, 720x400 (16: 9), ~1200 kbps
    Аудио Rus: MP3, 48, 0 kHz, 2 ch, 128 kbps — многоголосый закадровый
    Аудио Eng: MP3, 48, 0 kHz, 2 ch, 128 kbps — оригинал

    Общее
    Полное имя : D: Доктор Шанс (сезон любимого сериала 1) Chance (2016) WEBDLRip - NewStudioChance.S01E01.WEBDLRip.Rus.Eng.DV.NewStudio.avi
    Формат : AVI
    Формат/Информация : Audio Video Interleave
    Размер файла : 530 Мбайт
    Продолжительность : 50 м. 20 с.
    Общий поток : 1472 Кбит/сек
    Название фильма : Chance.S01E01.WEBDLRip.Rus.Eng.DV.NewStudio/NNM-Club
    Программа кодирования : VirtualDubModRus 1.5.10.2 (build 2542/release)
    Библиотека кодирования : VirtualDubMod build 2542/release
    Видео
    Идентификатор : 0
    Формат : MPEG-4 Visual
    Профиль формата : Advanced Simple@L5
    Параметр BVOP формата : 2
    Параметр QPel формата : Да
    Параметр GMC формата : Без точки перехода
    Параметр матрицы формата : Default (MPEG)
    Режим смешивания : Сжатый битовый поток
    Идентификатор кодека : XVID
    Идентификатор кодека/Подсказка : XviD
    Продолжительность : 50 м. 20 с.
    Битрейт : 1202 Кбит/сек
    Ширина : 720 пикселей
    Высота : 400 пикселей
    Соотношение сторон : 16: 9
    Частота кадров : 23, 976 (23976/1000) кадра/сек
    Цветовое пространство : YUV
    Субдискретизация насыщенности : 4: 2: 0
    Битовая глубина : 8 бит
    Тип развёртки : Прогрессивная
    Метод сжатия : С потерями
    Бит/(Пиксели*Кадры) : 0.174
    Размер потока : 433 Мбайт (82%)
    Библиотека кодирования : XviD 73
    Аудио #1
    Идентификатор : 1
    Формат : MPEG Audio
    Версия формата : Version 1
    Профиль формата : Layer 3
    Режим : Joint stereo
    Расширение режима : MS Stereo
    Идентификатор кодека : 55
    Идентификатор кодека/Подсказка : MP3
    Продолжительность : 50 м. 20 с.
    Вид битрейта : Постоянный
    Битрейт : 128 Кбит/сек
    Каналы : 2 канала
    Частота : 48, 0 КГц
    Метод сжатия : С потерями
    Размер потока : 46, 1 Мбайт (9%)
    Выравнивание : Соединение по промежуткам
    Продолжительность промежутка : 42 мс. (1, 00 видеокадр)
    Время предзагрузки промежутка : 504 мс.
    Аудио #2
    Идентификатор : 2
    Формат : MPEG Audio
    Версия формата : Version 1
    Профиль формата : Layer 3
    Режим : Joint stereo
    Расширение режима : MS Stereo
    Идентификатор кодека : 55
    Идентификатор кодека/Подсказка : MP3
    Продолжительность : 50 м. 20 с.
    Вид битрейта : Постоянный
    Битрейт : 128 Кбит/сек
    Каналы : 2 канала
    Частота : 48, 0 КГц
    Метод сжатия : С потерями
    Размер потока : 46, 1 Мбайт (9%)
    Выравнивание : Соединение по промежуткам
    Продолжительность промежутка : 42 мс. (1, 00 видеокадр)
    Время предзагрузки промежутка : 504 мс.
    Библиотека кодирования : LAME3.99.5


    Скриншоты для ознакомления




    Онлайн видео Доктор Шанс



    Доктор Шанс/Чанс/Chance (2016) WEB-DLRip (сезон 1, серии 1-2 из 10) NewStudio (обновляемая)
    загрузка...
    Рейтинг →
     (голосов: 1, оценка 5/5, голосовать можно 1 раз )

    Другие торренты по теме:

  • Доктор Шанс / Чанс / Chance (2016) WEBRip [H.264 / 720p-LQ] (сезон 1, серии 1-2 из 10) NewStudio (обновляемая)
  • Доктор Шанс / Чанс / Chance (2016) WEBRip [H.264 / 720p-LQ] (сезон 1, серии 1-4 из 10) Jaskier (обновляемая)
  • Кем Нанн | Доктор Шанс (2017) [FB2]
  • Доктор Шанс / Chance (2016) WEB-DL [H.264 / 1080p-LQ] (сезон 1, серии 1-10 из 10) NewStudio, Jaskier, Fox, Profix Media
  • Доктор Шанс / Chance (2017) WEB-DL [H.264 / 1080p-LQ] (сезон 2, серии 1-7 из 10) NewStudio (обновляемая)


    • Комментарии (0):

      Информация

      Информация

        Посетители, находящиеся в группе Гости, не могут оставлять комментарии в данной новости.

        ↓ Меню




        ↓ Опрос

        Вы добавили сайт в закладки?
        Да
        Нет


        Top 10 за месяц (Фильмы)