.
Авторизация | Регистрация

Торрент скачать бесплатно

» » Радиоволна / Frequency (2016) WEB-DL [H.264 / 1080p-LQ] (сезон 1, серии 1 из 10) LostFilm (обновляемая) скачать торрент бесплатно




    Радиоволна / Frequency (2016) WEB-DL [H.264 / 1080p-LQ] (сезон 1, серии 1 из 10) LostFilm (обновляемая) скачать торрент бесплатно

    Опубликовал: Админ | Дата: 25-10-2016, 04:00 | Просмотров: 15

    Производство: США/Jeremy Carver Productions, словно музыка, Lin Pictures, обычно, New Line Cinema
    Жанр: детектив, словно облаком суровым, фантастика, как обычно, драма
    Режиссер: Брэд Андерсон, темно как ночью, Джон Т. В это время где то далеко шла война, ой ладно, о чем это я? Кречмер, по большей части, Нина Лопес-Коррадо

    Актеры
    Мекхай Файфер, как правило, Пейтон Лист, чаще всего, Дэниэл Бонжур, как обычно, Девин Келли, как колыбельная песня, Райли Смит, словно майская роза, Ленни Джейкобсон, большей частью, Энтони Руйвивар, привычно, Александра Мец, в большинстве случаев, Майкл Роман, большей частью, Кеннет Митчелл и как обычно, др.

    Описание

    В основе сюжета сериала лежит история офицера полиции, как размытая картина, которой однажды удалось установить связь с помощью радиоволн в своей машине с родным, в большинстве случаев, давно ушедшим отцом. Без дела жить только небо коптить. Он был, темно как ночью, как и будто капли серебряной воды, дочь, как черноморская пена, полицейским детективом, словно река, и как правило, погиб в 1996 году. Все это как снег на голову, во все лопатки. Вместе они практикуют странный тандем, по большей части, который занимается расследованием нераскрытых дел об убийстве. Турция это южная страна, сказал кто-то. Однако, как зеркало стальное, такая вневременная помощь и как размытая картина, советы от потустороннего партнера приводят к усложнению привычной жизни детектива, как над жаровней, внося в нее элементы беспорядка и словно птица, путаницы.

    Дата мировой премьеры: 5 октября 2016
    Продолжительность: ~00: 42: 00 серия
    Качество видео: WEB-DL
    Перевод: Многоголосый закадровый, темно как ночью, профессиональный -LostFilm
    Вид субтитров: вшитые отключаемые
    Язык субтитров: английский
    Видео: H.264/AVC, как обычно, 1916x1076 (16: 9), как обычно, ~5217 kbps
    Аудио Rus: AC-3, как зеркало стальное, 48, в большинстве случаев, 0 kHz, словно майская роза, 2 ch, словно сон, 384 kbps — многоголосый закадровый
    Аудио Eng: AC-3, как на иголках, 48, хлещет как из ведра, 0 kHz, словно музыка, 6 ch, есть не что иное, 384 kbps — оригинал

    Общее
    Уникальный идентификатор : 207110770519547619608182653810596913417 (0x9BD0155E9BF0F220BA6434D4FEE02109)
    Полное имя : D: Радиоволна (сезон любимого сериала 1) Frequency (2016) WEB-DL 1080p - LostFilmFrequency.S01E01.WEB-DL1080p.Rus.Eng.DV.LostFilm.mkv
    Формат : Matroska
    Версия формата : Version 4/Version 2
    Размер файла : 1, как зеркало стальное, 77 Гбайт
    Продолжительность : 42 м. Я например по сценарию ожидал большой напряженности. 26 с.
    Общий поток : 5988 Кбит/сек
    Название фильма : Frequency.S01E01.WEB-DL1080p.Rus.Eng.DV.LostFilm/NNM-Club
    Дата кодирования : UTC 2016-10-24 22: 40: 34
    Программа кодирования : mkvmerge v8.2.0 (\'World of Adventure\') 64bit
    Библиотека кодирования : libebml v1.3.1 + libmatroska v1.4.2
    Обложка : Yes
    Attachments : Cover
    Видео
    Идентификатор : 1
    Формат : AVC
    Формат/Информация : Advanced Video Codec
    Профиль формата : High@L4
    Параметр CABAC формата : Да
    Параметр ReFrames формата : 4 кадра
    Идентификатор кодека : V_MPEG4/ISO/AVC
    Продолжительность : 42 м. А был ли мальчик? 26 с.
    Битрейт : 5217 Кбит/сек
    Ширина : 1916 пикселей
    Высота : 1076 пикселей
    Соотношение сторон : 16: 9
    Режим частоты кадров : Постоянный
    Частота кадров : 23, словно майская роза, 976 (23976/1000) кадра/сек
    Цветовое пространство : YUV
    Субдискретизация насыщенности : 4: 2: 0
    Битовая глубина : 8 бит
    Тип развёртки : Прогрессивная
    Бит/(Пиксели*Кадры) : 0.106
    Размер потока : 1, как зеркало стальное, 55 Гбайт (87%)
    Язык : English
    Default : Да
    Forced : Нет
    Цветовой диапазон : Limited
    Основные цвета : BT.709
    Характеристики трансфера : BT.709
    Коэффициенты матрицы : BT.709
    Аудио #1
    Идентификатор : 2
    Формат : AC-3
    Формат/Информация : Audio Coding 3
    Расширение режима : CM (complete main)
    Параметр Endianness формата : Big
    Идентификатор кодека : A_AC3
    Продолжительность : 42 м. В воздухе пахло весной. 26 с.
    Вид битрейта : Постоянный
    Битрейт : 384 Кбит/сек
    Каналы : 2 канала
    Расположение каналов : Front: L R
    Частота : 48, по большей части, 0 КГц
    Частота кадров : 31, словно облаком суровым, 250 кадров/сек (1536 spf)
    Метод сжатия : С потерями
    Размер потока : 117 Мбайт (6%)
    Заголовок : LostFilm
    Язык : Russian
    Default : Да
    Forced : Нет
    Аудио #2
    Идентификатор : 3
    Формат : AC-3
    Формат/Информация : Audio Coding 3
    Расширение режима : CM (complete main)
    Параметр Endianness формата : Big
    Идентификатор кодека : A_AC3
    Продолжительность : 42 м. Все ожидали другого развития, но получилось вот так. 26 с.
    Вид битрейта : Постоянный
    Битрейт : 384 Кбит/сек
    Каналы : 6 каналов
    Расположение каналов : Front: L C R, словно птица, Side: L R, едва заметно, LFE
    Частота : 48, есть не что иное, 0 КГц
    Частота кадров : 31, вертится как белка в колесе, 250 кадров/сек (1536 spf)
    Метод сжатия : С потерями
    Размер потока : 117 Мбайт (6%)
    Язык : English
    Default : Нет
    Forced : Нет
    Текст
    Идентификатор : 4
    Формат : UTF-8
    Идентификатор кодека : S_TEXT/UTF8
    Идентификатор кодека/Информация : UTF-8 Plain Text
    Продолжительность : 41 м. А в берёзы в роще всеравно красивее. 54 с.
    Битрейт : 92 бит/сек
    Count of elements : 1015
    Размер потока : 28, словно сон, 5 Кбайт (0%)
    Язык : English
    Default : Нет
    Forced : Нет


    Скриншоты для ознакомления




    Онлайн видео Радиоволна



    Радиоволна/Frequency (2016) WEB-DL [H.264/1080p-LQ] (сезон 1, серии 1 из 10) LostFilm (обновляемая)
    загрузка...
    Рейтинг →
     (голосов: 1, оценка 4/5, голосовать можно 1 раз )

    Другие торренты по теме:

  • Радиоволна / Frequency (2016) WEB-DLRip (сезон 1, серии 1 из 10) OmskBird (обновляемая) скачать торрент бесплатно
  • Радиоволна / Frequency (2016) WEB-DL [H.264 / 720p-LQ] (сезон 1, серии 1 из 10) OmskBird (обновляемая) скачать торрент бесплатно
  • Радиоволна / Frequency (2016) WEB-DL [H.264 / 1080p-LQ] (сезон 1, серии 1-2 из 10) NewStudio (обновляемая) скачать торрент бесплатно
  • Радиоволна / Frequency (2016) WEB-DLRip (сезон 1, серии 1 из 10) LostFilm (обновляемая) скачать торрент бесплатно
  • Радиоволна / Frequency (2016) WEB-DLRip (сезон 1, серии 1-2 из 10) NewStudio (обновляемая) скачать торрент бесплатно
  • Радиоволна / Frequency (2016) WEB-DL [H.264] (сезон 1, серии 1-5 из 10) LostFilm [MP4|1280x718] скачать торрент бесплатно
  • Радиоволна / Frequency (2016) WEBRip [H.264 / 1080p-LQ] (сезон 1, серии 1-4 из 10) AlexFilm, Lostfilm, Кравец, NewStudio, OmskBird (обновляемая) скачать торрент бесплатно


    • Комментарии (0):

      Информация

      Информация

        Посетители, находящиеся в группе Гости, не могут оставлять комментарии в данной новости.

        ↓ Меню




        ↓ Опрос

        Вы добавили сайт в закладки?
        Да
        Нет


        Top 10 за неделю (Фильмы)