.
Авторизация | Регистрация
Хочешь лучшие торренты? Добавь свой email!
Добавить

Торрент скачать бесплатно

» » Радиоволна / Frequency (2016) WEB-DLRip (сезон 1, серии 1 из 10) LostFilm (обновляемая) торрент скачать бесплатно




    Радиоволна / Frequency (2016) WEB-DLRip (сезон 1, серии 1 из 10) LostFilm (обновляемая) торрент скачать бесплатно

    Опубликовал: Админ | Дата: 25-10-2016, 04:00 | Просмотров: 15

    Производство: США/Jeremy Carver Productions, Lin Pictures, New Line Cinema
    Жанр: детектив, фантастика, драма
    Режиссер: Брэд Андерсон, Джон Т. Кречмер, Нина Лопес-Коррадо

    Актеры
    Мекхай Файфер, Пейтон Лист, Дэниэл Бонжур, Девин Келли, Райли Смит, Ленни Джейкобсон, Энтони Руйвивар, Александра Мец, Майкл Роман, Кеннет Митчелл и др.

    Описание

    В основе сюжета сериала лежит история офицера полиции, которой однажды удалось установить связь с помощью радиоволн в своей машине с родным, давно ушедшим отцом. Он был, как и дочь, полицейским детективом, и погиб в 1996 году. Вместе они практикуют странный тандем, который занимается расследованием нераскрытых дел об убийстве. О таком странном сюжете не догадывалась даже Юлия Володимировна. Однако, такая вневременная помощь и советы от потустороннего партнера приводят к усложнению привычной жизни детектива, внося в нее элементы беспорядка и путаницы.

    Дата мировой премьеры: 5 октября 2016
    Продолжительность: ~00: 42: 00 серия
    Качество видео: WEB-DLRip
    Перевод: Многоголосый закадровый, профессиональный -LostFilm
    Видео: XviD, 720x400 (16: 9), ~1500 kbps
    Аудио Rus: MP3, 48, 0 kHz, 2 ch, 128 kbps — многоголосый закадровый
    Аудио Eng: MP3, 48, 0 kHz, 2 ch, 128 kbps — оригинал

    Общее
    Полное имя : D: Радиоволна (сезон любимого сериала 1) Frequency (2016) WEB-DLRip - LostFilmFrequency.S01E01.WEB-DLRip.Rus.Eng.DV.LostFilm.avi
    Формат : AVI
    Формат/Информация : Audio Video Interleave
    Размер файла : 539 Мбайт
    Продолжительность : 42 м. 26 с.
    Общий поток : 1775 Кбит/сек
    Название фильма : Frequency.S01E01.WEB-DLRip.Rus.Eng.DV.LostFilm/NNM-Club
    Программа кодирования : VirtualDubModRus 1.5.10.2 (build 2542/release)
    Библиотека кодирования : VirtualDubMod build 2542/release
    Видео
    Идентификатор : 0
    Формат : MPEG-4 Visual
    Профиль формата : Advanced Simple@L5
    Параметр BVOP формата : 2
    Параметр QPel формата : Нет
    Параметр GMC формата : Без точки перехода
    Параметр матрицы формата : Default (H.263)
    Идентификатор кодека : XVID
    Идентификатор кодека/Подсказка : XviD
    Продолжительность : 42 м. 26 с.
    Битрейт : 1505 Кбит/сек
    Ширина : 720 пикселей
    Высота : 400 пикселей
    Соотношение сторон : 16: 9
    Частота кадров : 23, 976 (24000/1001) кадра/сек
    Цветовое пространство : YUV
    Субдискретизация насыщенности : 4: 2: 0
    Битовая глубина : 8 бит
    Тип развёртки : Прогрессивная
    Метод сжатия : С потерями
    Бит/(Пиксели*Кадры) : 0.218
    Размер потока : 457 Мбайт (85%)
    Заголовок : Rip by DriverV/NNM-Club
    Библиотека кодирования : XviD 64
    Аудио #1
    Идентификатор : 1
    Формат : MPEG Audio
    Версия формата : Version 1
    Профиль формата : Layer 3
    Режим : Joint stereo
    Расширение режима : MS Stereo
    Идентификатор кодека : 55
    Идентификатор кодека/Подсказка : MP3
    Продолжительность : 42 м. 26 с.
    Вид битрейта : Постоянный
    Битрейт : 128 Кбит/сек
    Каналы : 2 канала
    Частота : 48, 0 КГц
    Метод сжатия : С потерями
    Размер потока : 38, 9 Мбайт (7%)
    Выравнивание : Соединение по промежуткам
    Продолжительность промежутка : 42 мс. Благодатная почва, сказал кто то из толпы, к чему не понятно. (1, 00 видеокадр)
    Время предзагрузки промежутка : 504 мс.
    Аудио #2
    Идентификатор : 2
    Формат : MPEG Audio
    Версия формата : Version 1
    Профиль формата : Layer 3
    Режим : Joint stereo
    Расширение режима : MS Stereo
    Идентификатор кодека : 55
    Идентификатор кодека/Подсказка : MP3
    Продолжительность : 42 м. 26 с.
    Вид битрейта : Постоянный
    Битрейт : 128 Кбит/сек
    Каналы : 2 канала
    Частота : 48, 0 КГц
    Метод сжатия : С потерями
    Размер потока : 38, 9 Мбайт (7%)
    Выравнивание : Соединение по промежуткам
    Продолжительность промежутка : 42 мс. (1, 00 видеокадр)
    Время предзагрузки промежутка : 504 мс.


    Скриншоты для ознакомления




    Онлайн видео Радиоволна



    Радиоволна/Frequency (2016) WEB-DLRip (сезон 1, серии 1 из 10) LostFilm (обновляемая)
    загрузка...
    Рейтинг →
     (голосов: 1, оценка 5/5, голосовать можно 1 раз )

    Другие торренты по теме:

  • Радиоволна / Frequency (2016) WEB-DLRip (сезон 1, серии 1 из 10) OmskBird (обновляемая)
  • Радиоволна / Frequency (2016) WEB-DL [H.264 / 720p-LQ] (сезон 1, серии 1 из 10) OmskBird (обновляемая)
  • Радиоволна / Frequency (2016) WEB-DL [H.264 / 1080p-LQ] (сезон 1, серии 1-2 из 10) NewStudio (обновляемая)
  • Радиоволна / Frequency (2016) WEB-DL [H.264 / 1080p-LQ] (сезон 1, серии 1 из 10) LostFilm (обновляемая)
  • Радиоволна / Frequency (2016) WEB-DLRip (сезон 1, серии 1-2 из 10) NewStudio (обновляемая)
  • Радиоволна / Frequency (2016) WEB-DL [H.264] (сезон 1, серии 1-5 из 10) LostFilm [MP4|1280x718]
  • Радиоволна / Frequency (2016) WEBRip [H.264 / 1080p-LQ] (сезон 1, серии 1-4 из 10) AlexFilm, Lostfilm, Кравец, NewStudio, OmskBird (обновляемая)
  • Радиоволна / Frequency (2016) WEB-DLRip (сезон 1, серии 1-13 из 13 + эпилог) OmskBird


    • Комментарии (0):

      Информация

      Информация

        Посетители, находящиеся в группе Гости, не могут оставлять комментарии в данной новости.

        ↓ Меню




        ↓ Опрос

        Вы добавили сайт в закладки?
        Да
        Нет


        Top 10 за месяц (Фильмы)