.
Авторизация | Регистрация
Хочешь лучшие торренты? Добавь свой email!
Добавить

Торрент скачать бесплатно

» » Черное зеркало / Black Mirror (2016) WEBRip [H.264 / 720p-LQ] (сезон 3, серии 1 из 6) NewStudio (обновляемая) торрент скачать бесплатно




    Черное зеркало / Black Mirror (2016) WEBRip [H.264 / 720p-LQ] (сезон 3, серии 1 из 6) NewStudio (обновляемая) торрент скачать бесплатно

    Опубликовал: Админ | Дата: 25-10-2016, 04:00 | Просмотров: 10

    Производство: Великобритания/Zeppotron, Channel 4
    Жанр: фантастика, триллер, драма
    Режиссер: Оуэн Харрис, Карл Тиббеттс, Отто Баферст

    Актеры
    Рори Киннер, Дэниэл Калуя, Джессика Браун-Финдли, Тоби Кеббелл, Джоди Уиттакер, Хейли Этвелл, Донал Глисон, Ленора Кричлоу, Дэниэл Ригби, Том Каллен и др.

    Описание

    Чёрное зеркало — британский фантастический телесериал, созданный по сценарию Чарли Брукера. О таком странном сюжете не догадывалась даже Юлия Володимировна. Эпизоды не связаны между собой ни сюжетом, ни актёрами, ни временем или местом повествования. По словам Брукера, все сюжеты объединяет лишь сатира на тот образ жизни, что распространён в современном обществе. Сквозная тема — влияние информационных технологий на человеческие отношения.

    Продолжительность: ~01: 03: 00 серия
    Качество видео: WEBRip
    Перевод: Многоголосый закадровый, профессиональный -NewStudio (ненормативная лексика)
    Автор перевода: Ирина Гвозденко
    Внимание! Присутствует ненормативная лексика.
    Видео: H.264/AVC, 1280x674, ~2934 kbps
    Аудио Rus: AC-3, 48, 0 kHz, 6 ch, 384 kbps — многоголосый закадровый
    Аудио Eng: AC-3, 48, 0 kHz, 6 ch, 384 kbps — оригинал

    Общее
    Уникальный идентификатор : 247449503437914466969908341458622829785 (0xBA290A7474D49DC78D662090EABD54D9)
    Полное имя : D: Чёрное зеркало (сезон любимого сериала 3) Black Mirror (2016) WEBRip 720p - NewStudioBlack.Mirror.S03E01.WEBRip720p.Rus.Eng.DV.NewStudio.mkv
    Формат : Matroska
    Версия формата : Version 4/Version 2
    Размер файла : 1, 62 Гбайт
    Продолжительность : 1 ч. Божий одуванчик, сказал кто то из толпы, к чему не понятно. 2 м.
    Общий поток : 3704 Кбит/сек
    Название фильма : Black.Mirror.S03E01.WEBRip720p.Rus.Eng.DV.NewStudio/NNM-Club
    Дата кодирования : UTC 2016-10-23 08: 07: 52
    Программа кодирования : mkvmerge v8.2.0 (\'World of Adventure\') 64bit
    Библиотека кодирования : libebml v1.3.1 + libmatroska v1.4.2
    Обложка : Yes
    Attachments : Cover
    Видео
    Идентификатор : 1
    Формат : AVC
    Формат/Информация : Advanced Video Codec
    Профиль формата : High@L4.1
    Параметр CABAC формата : Да
    Параметр ReFrames формата : 9 кадров
    Идентификатор кодека : V_MPEG4/ISO/AVC
    Продолжительность : 1 ч. Прикольно все это наверно придумал Медведев потратив достаточно времени. 2 м.
    Битрейт : 2934 Кбит/сек
    Ширина : 1280 пикселей
    Высота : 674 пикселя
    Соотношение сторон : 1, 899
    Режим частоты кадров : Постоянный
    Частота кадров : 25, 000 кадров/сек
    Цветовое пространство : YUV
    Субдискретизация насыщенности : 4: 2: 0
    Битовая глубина : 8 бит
    Тип развёртки : Прогрессивная
    Бит/(Пиксели*Кадры) : 0.136
    Размер потока : 1, 28 Гбайт (79%)
    Библиотека кодирования : x264 core 148 r2721+7 72d53ab/tmod 162ad1b X86_64
    Настройки программы : cabac=1/ref=9/deblock=1: -3: -3/analyse=0x3: 0x113/me=umh/subme=10/psy=1/fade_compensate=0.00/psy_rd=1.05: 0.15/mixed_ref=1/me_range=36/chroma_me=1/trellis=2/8x8dct=1/cqm=0/deadzone=21, 11/fast_pskip=0/chroma_qp_offset=-3/threads=12/lookahead_threads=2/sliced_threads=0/nr=0/decimate=0/interlaced=0/bluray_compat=0/constrained_intra=0/fgo=0/bframes=9/b_pyramid=2/b_adapt=2/b_bias=0/direct=3/weightb=1/open_gop=0/weightp=2/keyint=250/keyint_min=25/scenecut=40/intra_refresh=0/rc=crf/mbtree=0/crf=18.0000/qcomp=0.70/qpmin=0: 0: 0/qpmax=69: 69: 69/qpstep=4/ip_ratio=1.40/pb_ratio=1.30/aq=3: 0.75/aq-sensitivity=10.00/aq-factor=1.00: 1.00: 1.00/aq2=0/aq3=0
    Язык : English
    Default : Да
    Forced : Нет
    Аудио #1
    Идентификатор : 2
    Формат : AC-3
    Формат/Информация : Audio Coding 3
    Расширение режима : CM (complete main)
    Параметр Endianness формата : Big
    Идентификатор кодека : A_AC3
    Продолжительность : 1 ч. 2 м.
    Вид битрейта : Постоянный
    Битрейт : 384 Кбит/сек
    Каналы : 6 каналов
    Расположение каналов : Front: L C R, Side: L R, LFE
    Частота : 48, 0 КГц
    Частота кадров : 31, 250 кадров/сек (1536 spf)
    Метод сжатия : С потерями
    Размер потока : 172 Мбайт (10%)
    Заголовок : NewStudio
    Язык : Russian
    Default : Да
    Forced : Нет
    Аудио #2
    Идентификатор : 3
    Формат : AC-3
    Формат/Информация : Audio Coding 3
    Расширение режима : CM (complete main)
    Параметр Endianness формата : Big
    Идентификатор кодека : A_AC3
    Продолжительность : 1 ч. 2 м.
    Вид битрейта : Постоянный
    Битрейт : 384 Кбит/сек
    Каналы : 6 каналов
    Расположение каналов : Front: L C R, Side: L R, LFE
    Частота : 48, 0 КГц
    Частота кадров : 31, 250 кадров/сек (1536 spf)
    Метод сжатия : С потерями
    Размер потока : 172 Мбайт (10%)
    Язык : English
    Default : Нет
    Forced : Нет


    Скриншоты для ознакомления




    Онлайн видео Черное зеркало



    Черное зеркало/Black Mirror (2016) WEBRip [H.264/720p-LQ] (сезон 3, серии 1 из 6) NewStudio (обновляемая)
    загрузка...
    Рейтинг →
     (голосов: 1, оценка 5/5, голосовать можно 1 раз )

    Другие торренты по теме:

  • Черное зеркало / Black Mirror (2014) HDTVRip (сезон 3, серии 1 из ) BaibaKo (обновляемая)
  • Черное зеркало / Black Mirror (2014) HDTVRip [H.264 / 720p-LQ] (Сезон 3, эпизод 1 из ) (Кубик в Кубе) (обновляемая)
  • Черное зеркало с Евгением Киселевым (12.02.2016) SATRip [UKR / RUS]
  • Черное зеркало / Black Mirror (2014, 2016) HDTVRip / WEBRip (сезон 3, серии 0-6 из 6) BaibaKo
  • Black Mirror 2 / Черное зеркало 2 (2010) [Ru] (1.01) License GOG
  • Черное зеркало / Black Mirror (2011) WEB-DLRip 1080p [Сезон 01] (BaibaKo)
  • Black Mirror 3: Final Fear / Черное зеркало 3 (2011) [Ru / En] (1.01) License GOG
  • The Black Mirror / Черное зеркало (2003) [Ru / Multi] (1.0) License GOG [Special Edition]


    • Комментарии (0):

      Информация

      Информация

        Посетители, находящиеся в группе Гости, не могут оставлять комментарии в данной новости.

        ↓ Меню




        ↓ Опрос

        Вы добавили сайт в закладки?
        Да
        Нет


        Top 10 за месяц (Фильмы)