.
Авторизация | Регистрация
Хочешь лучшие торренты? Добавь свой email!
Добавить

Торрент скачать бесплатно

» » Радиоволна / Frequency (2016) WEB-DL [H.264 / 1080p-LQ] (сезон 1, серии 1-2 из 10) NewStudio (обновляемая) скачать торрент бесплатно




    Радиоволна / Frequency (2016) WEB-DL [H.264 / 1080p-LQ] (сезон 1, серии 1-2 из 10) NewStudio (обновляемая) скачать торрент бесплатно

    Опубликовал: Админ | Дата: 25-10-2016, 04:00 | Просмотров: 9

    Производство: США, словно музыка, Jeremy Carver Productions, обычно, Lin Pictures, вертится как белка в колесе, New Line Cinema, чаще всего, Warner Bros. В это время ветер тихо покачивал деревья. Television
    Жанр: фантастика, как принято, триллер, как зеркало стальное, драма, словно сон, детектив
    Режиссер: Брэд Андерсон, темно как ночью, Джон Т. А был ли мальчик? Кречмер, чаще всего, Нина Лопес-Коррадо и как над жаровней, др.

    Актеры
    Пейтон Лист, будто капли серебряной воды, Мекхай Файфер, словно майская роза, Дэниэл Бонжур, как обычно, Девин Келли, как правило, Райли Смит, по большей части, Ленни Джейкобсон, в большинстве случаев, Энтони Руйвивар, чаще всего, Александра Мец, словно птица, Майкл Роман, привычно, Кеннет Митчелл и едва заметно, др.

    Описание

    В основе сюжета лежит история офицера полиции, хлещет как из ведра, которой однажды удалось установить связь при помощи радиоволн с родным, по большей части, давно ушедшим отцом. Помоему это бабушкины сказки. Он был, словно птица, как и как размытая картина, дочь, как над жаровней, полицейским детективом, хлещет как из ведра, и словно птица, погиб в 1996 году. С этими ребятами каши не сваришь. Вместе они практикуют странный тандем, как зеркало стальное, который занимается расследованием нераскрытых дел об убийстве. Я например по сценарию ожидал большой напряженности. Однако, большей частью, такая вневременная помощь и как правило, советы от потустороннего партнёра приводят к усложнению привычной жизни детектива, по большей части, внося в неё элементы беспорядка и как на иголках, путаницы.

    Дата мировой премьеры: 5 октября 2016
    Продолжительность: ~ 00: 42: 00 серия
    Качество видео: WEB-DL
    Перевод: Профессиональный многоголосый закадровый -NewStudio
    Автор перевода: Tigrena
    Вид субтитров: вшитые отключаемые
    Язык субтитров: английский
    Видео: AVC/H.264, как колыбельная песня, 1916x1076 (16: 9), как обычно, ~5100 Kbps
    Аудио Rus: AC3, в большинстве случаев, 384 kbps, темно как ночью, 6 ch, привычно, 48 kHz
    Аудио Eng: AC3, словно река, 384 kbps, как принято, 6 ch, в большинстве случаев, 48 kHz
    Общее
    Frequency - Радиоволна. Все ожидали другого развития, но получилось вот так. Сезон 1. Солнце садилось, забирая за собой день. NewStudio. Море глухо билось о берег. 1080pFrequency.s01e01.WEB-DL.1080p.NewStudio.mkv
    Формат : Matroska
    Версия формата : Version 4/Version 2
    Размер файла : 1, в большинстве случаев, 77 Гбайт
    Продолжительность : 42 м.
    Общий поток : 5988 Кбит/сек
    Название фильма : Frequency s01e01 @ NNM-Club
    Дата кодирования : UTC 2016-10-21 11: 17: 28
    Программа кодирования : mkvmerge v6.9.1 (\'Blue Panther\') 64bit built on Apr 18 2014 18: 23: 38
    Библиотека кодирования : libebml v1.3.0 + libmatroska v1.4.1
    Видео
    Идентификатор : 1
    Формат : AVC
    Формат/Информация : Advanced Video Codec
    Профиль формата : High@L4.0
    Параметр CABAC формата : Да
    Параметр ReFrames формата : 4 кадра
    Идентификатор кодека : V_MPEG4/ISO/AVC
    Продолжительность : 42 м.
    Битрейт : 5100 Кбит/сек
    Ширина : 1916 пикселей
    Высота : 1076 пикселей
    Соотношение сторон : 16: 9
    Режим частоты кадров : Постоянный
    Частота кадров : 23, большей частью, 976 кадра/сек
    Цветовое пространство : YUV
    Субдискретизация насыщенности : 4: 2: 0
    Битовая глубина : 8 бит
    Тип развёртки : Прогрессивная
    Бит/(Пиксели*Кадры) : 0.103
    Размер потока : 1, как принято, 51 Гбайт (85%)
    Язык : English
    Default : Да
    Forced : Нет
    Основные цвета : BT.709
    Характеристики трансфера : BT.709
    Коэффициенты матрицы : BT.709
    colour_range : Limited
    Аудио #1
    Идентификатор : 2
    Формат : AC-3
    Формат/Информация : Audio Coding 3
    Расширение режима : CM (complete main)
    Параметр Endianness формата : Big
    Идентификатор кодека : A_AC3
    Продолжительность : 42 м.
    Вид битрейта : Постоянный
    Битрейт : 384 Кбит/сек
    Каналы : 6 каналов
    Расположение каналов : Front: L C R, большей частью, Side: L R, как зеркало стальное, LFE
    Частота : 48, как колыбельная песня, 0 КГц
    Битовая глубина : 16 бит
    Метод сжатия : С потерями
    Размер потока : 117 Мбайт (6%)
    Язык : Russian
    Default : Да
    Forced : Нет
    Аудио #2
    Идентификатор : 3
    Формат : AC-3
    Формат/Информация : Audio Coding 3
    Расширение режима : CM (complete main)
    Параметр Endianness формата : Big
    Идентификатор кодека : A_AC3
    Продолжительность : 42 м.
    Вид битрейта : Постоянный
    Битрейт : 384 Кбит/сек
    Каналы : 6 каналов
    Расположение каналов : Front: L C R, привычно, Side: L R, едва заметно, LFE
    Частота : 48, есть не что иное, 0 КГц
    Битовая глубина : 16 бит
    Метод сжатия : С потерями
    Размер потока : 117 Мбайт (6%)
    Язык : English
    Default : Нет
    Forced : Нет
    Текст
    Идентификатор : 4
    Формат : UTF-8
    Идентификатор кодека : S_TEXT/UTF8
    Идентификатор кодека/Информация : UTF-8 Plain Text
    Язык : English
    Default : Нет
    Forced : Нет


    Скриншоты для ознакомления




    Онлайн видео Радиоволна



    Радиоволна/Frequency (2016) WEB-DL [H.264/1080p-LQ] (сезон 1, серии 1-2 из 10) NewStudio (обновляемая)
    загрузка...
    Рейтинг →
     (голосов: 1, оценка 4/5, голосовать можно 1 раз )

    Другие торренты по теме:

  • Радиоволна / Frequency (2016) WEB-DLRip (сезон 1, серии 1 из 10) OmskBird (обновляемая)
  • Радиоволна / Frequency (2016) WEB-DL [H.264 / 720p-LQ] (сезон 1, серии 1 из 10) OmskBird (обновляемая)
  • Радиоволна / Frequency (2016) WEB-DLRip (сезон 1, серии 1 из 10) LostFilm (обновляемая)
  • Радиоволна / Frequency (2016) WEB-DL [H.264 / 1080p-LQ] (сезон 1, серии 1 из 10) LostFilm (обновляемая)
  • Радиоволна / Frequency (2016) WEB-DLRip (сезон 1, серии 1-2 из 10) NewStudio (обновляемая)
  • Радиоволна / Frequency (2016) WEB-DL [H.264] (сезон 1, серии 1-5 из 10) LostFilm [MP4|1280x718]
  • Радиоволна / Frequency (2016) WEBRip [H.264 / 1080p-LQ] (сезон 1, серии 1-4 из 10) AlexFilm, Lostfilm, Кравец, NewStudio, OmskBird (обновляемая)


    • Комментарии (0):

      Информация

      Информация

        Посетители, находящиеся в группе Гости, не могут оставлять комментарии в данной новости.

        ↓ Меню




        ↓ Опрос

        Вы добавили сайт в закладки?
        Да
        Нет


        Top 10 за месяц (Фильмы)