.
Авторизация | Регистрация
Хочешь лучшие торренты? Добавь свой email!
Добавить

Торрент скачать бесплатно

» » Радиоволна / Frequency (2016) WEB-DL [H.264 / 1080p-LQ] (сезон 1, серии 1-2 из 10) NewStudio (обновляемая) торрент скачать бесплатно




    Радиоволна / Frequency (2016) WEB-DL [H.264 / 1080p-LQ] (сезон 1, серии 1-2 из 10) NewStudio (обновляемая) торрент скачать бесплатно

    Опубликовал: Админ | Дата: 25-10-2016, 04:00 | Просмотров: 9

    Производство: США, Jeremy Carver Productions, Lin Pictures, New Line Cinema, Warner Bros. Television
    Жанр: фантастика, триллер, драма, детектив
    Режиссер: Брэд Андерсон, Джон Т. Кречмер, Нина Лопес-Коррадо и др.

    Актеры
    Пейтон Лист, Мекхай Файфер, Дэниэл Бонжур, Девин Келли, Райли Смит, Ленни Джейкобсон, Энтони Руйвивар, Александра Мец, Майкл Роман, Кеннет Митчелл и др.

    Описание

    В основе сюжета лежит история офицера полиции, которой однажды удалось установить связь при помощи радиоволн с родным, давно ушедшим отцом. Он был, как и дочь, полицейским детективом, и погиб в 1996 году. Вместе они практикуют странный тандем, который занимается расследованием нераскрытых дел об убийстве. Однако, такая вневременная помощь и советы от потустороннего партнёра приводят к усложнению привычной жизни детектива, внося в неё элементы беспорядка и путаницы.

    Дата мировой премьеры: 5 октября 2016
    Продолжительность: ~ 00: 42: 00 серия
    Качество видео: WEB-DL
    Перевод: Профессиональный многоголосый закадровый -NewStudio
    Автор перевода: Tigrena
    Вид субтитров: вшитые отключаемые
    Язык субтитров: английский
    Видео: AVC/H.264, 1916x1076 (16: 9), ~5100 Kbps
    Аудио Rus: AC3, 384 kbps, 6 ch, 48 kHz
    Аудио Eng: AC3, 384 kbps, 6 ch, 48 kHz
    Общее
    Frequency - Радиоволна. Сезон 1. NewStudio. 1080pFrequency.s01e01.WEB-DL.1080p.NewStudio.mkv
    Формат : Matroska
    Версия формата : Version 4/Version 2
    Размер файла : 1, 77 Гбайт
    Продолжительность : 42 м.
    Общий поток : 5988 Кбит/сек
    Название фильма : Frequency s01e01 @ NNM-Club
    Дата кодирования : UTC 2016-10-21 11: 17: 28
    Программа кодирования : mkvmerge v6.9.1 (\'Blue Panther\') 64bit built on Apr 18 2014 18: 23: 38
    Библиотека кодирования : libebml v1.3.0 + libmatroska v1.4.1
    Видео
    Идентификатор : 1
    Формат : AVC
    Формат/Информация : Advanced Video Codec
    Профиль формата : High@L4.0
    Параметр CABAC формата : Да
    Параметр ReFrames формата : 4 кадра
    Идентификатор кодека : V_MPEG4/ISO/AVC
    Продолжительность : 42 м.
    Битрейт : 5100 Кбит/сек
    Ширина : 1916 пикселей
    Высота : 1076 пикселей
    Соотношение сторон : 16: 9
    Режим частоты кадров : Постоянный
    Частота кадров : 23, 976 кадра/сек
    Цветовое пространство : YUV
    Субдискретизация насыщенности : 4: 2: 0
    Битовая глубина : 8 бит
    Тип развёртки : Прогрессивная
    Бит/(Пиксели*Кадры) : 0.103
    Размер потока : 1, 51 Гбайт (85%)
    Язык : English
    Default : Да
    Forced : Нет
    Основные цвета : BT.709
    Характеристики трансфера : BT.709
    Коэффициенты матрицы : BT.709
    colour_range : Limited
    Аудио #1
    Идентификатор : 2
    Формат : AC-3
    Формат/Информация : Audio Coding 3
    Расширение режима : CM (complete main)
    Параметр Endianness формата : Big
    Идентификатор кодека : A_AC3
    Продолжительность : 42 м.
    Вид битрейта : Постоянный
    Битрейт : 384 Кбит/сек
    Каналы : 6 каналов
    Расположение каналов : Front: L C R, Side: L R, LFE
    Частота : 48, 0 КГц
    Битовая глубина : 16 бит
    Метод сжатия : С потерями
    Размер потока : 117 Мбайт (6%)
    Язык : Russian
    Default : Да
    Forced : Нет
    Аудио #2
    Идентификатор : 3
    Формат : AC-3
    Формат/Информация : Audio Coding 3
    Расширение режима : CM (complete main)
    Параметр Endianness формата : Big
    Идентификатор кодека : A_AC3
    Продолжительность : 42 м.
    Вид битрейта : Постоянный
    Битрейт : 384 Кбит/сек
    Каналы : 6 каналов
    Расположение каналов : Front: L C R, Side: L R, LFE
    Частота : 48, 0 КГц
    Битовая глубина : 16 бит
    Метод сжатия : С потерями
    Размер потока : 117 Мбайт (6%)
    Язык : English
    Default : Нет
    Forced : Нет
    Текст
    Идентификатор : 4
    Формат : UTF-8
    Идентификатор кодека : S_TEXT/UTF8
    Идентификатор кодека/Информация : UTF-8 Plain Text
    Язык : English
    Default : Нет
    Forced : Нет


    Скриншоты для ознакомления




    Онлайн видео Радиоволна



    Радиоволна/Frequency (2016) WEB-DL [H.264/1080p-LQ] (сезон 1, серии 1-2 из 10) NewStudio (обновляемая)
    загрузка...
    Рейтинг →
     (голосов: 1, оценка 5/5, голосовать можно 1 раз )

    Другие торренты по теме:

  • Радиоволна / Frequency (2016) WEB-DLRip (сезон 1, серии 1 из 10) OmskBird (обновляемая)
  • Радиоволна / Frequency (2016) WEB-DL [H.264 / 720p-LQ] (сезон 1, серии 1 из 10) OmskBird (обновляемая)
  • Радиоволна / Frequency (2016) WEB-DLRip (сезон 1, серии 1 из 10) LostFilm (обновляемая)
  • Радиоволна / Frequency (2016) WEB-DL [H.264 / 1080p-LQ] (сезон 1, серии 1 из 10) LostFilm (обновляемая)
  • Радиоволна / Frequency (2016) WEB-DLRip (сезон 1, серии 1-2 из 10) NewStudio (обновляемая)
  • Радиоволна / Frequency (2016) WEB-DL [H.264] (сезон 1, серии 1-5 из 10) LostFilm [MP4|1280x718]
  • Радиоволна / Frequency (2016) WEBRip [H.264 / 1080p-LQ] (сезон 1, серии 1-4 из 10) AlexFilm, Lostfilm, Кравец, NewStudio, OmskBird (обновляемая)
  • Радиоволна / Frequency (2016) WEB-DLRip (сезон 1, серии 1-13 из 13 + эпилог) OmskBird


    • Комментарии (0):

      Информация

      Информация

        Посетители, находящиеся в группе Гости, не могут оставлять комментарии в данной новости.

        ↓ Меню




        ↓ Опрос

        Вы добавили сайт в закладки?
        Да
        Нет


        Top 10 за месяц (Фильмы)