.
Авторизация | Регистрация
Хочешь лучшие торренты? Добавь свой email!
Добавить

Торрент скачать бесплатно

» » Человек из команды Альфа (1992) VHSRip торрент скачать бесплатно




    Человек из команды Альфа (1992) VHSRip торрент скачать бесплатно

    Опубликовал: Админ | Дата: 25-10-2016, 04:00 | Просмотров: 24

    Производство: Украина, Юниссибфильм
    Жанр: Боевик, Драма, Приключения
    Режиссер: Борис Небиеридзе

    Актеры
    Алексей Горбунов, Елена Костина, Юрий Кузнецов, Лев Дуров, Александра Колкунова, Леонид Кулагин, Марина Могилевская, Наталья Гончарова, Гоша Куценко, Юрий Николайшвили

    Описание

    Фильм повествует о буднях жизни отряда особого назначения, для солдат которого каждый день связан с риском для жизни. О превратностях судьбы в исторические моменты жизни страны.

    Продолжительность: 01: 24: 01
    Качество видео: VHSRip
    Видео: Xvid, 640x480, ~1104 Kbps
    Аудио: MP3, 2 ch, 160 Kbps

    Общее
    Полное имя : D: Человек из команды Альфа (1992) VHSRip.avi
    Формат : AVI
    Формат/Информация : Audio Video Interleave
    Размер файла : 766 Мбайт
    Продолжительность : 1 ч. 24 м.
    Общий поток : 1274 Кбит/сек
    Программа кодирования : VirtualDubMod 1.5.10.3 (build 2550/release)
    Библиотека кодирования : VirtualDub build 35390/release
    Видео
    Идентификатор : 0
    Формат : MPEG-4 Visual
    Профиль формата : Advanced Simple@L5
    Параметр BVOP формата : 1
    Параметр QPel формата : Нет
    Параметр GMC формата : Без точки перехода
    Параметр матрицы формата : Default (H.263)
    Идентификатор кодека : XVID
    Идентификатор кодека/Подсказка : XviD
    Продолжительность : 1 ч. 24 м.
    Битрейт : 1104 Кбит/сек
    Ширина : 640 пикселей
    Высота : 480 пикселей
    Соотношение сторон : 4: 3
    Частота кадров : 25, 000 кадров/сек
    Цветовое пространство : YUV
    Субдискретизация насыщенности : 4: 2: 0
    Битовая глубина : 8 бит
    Тип развёртки : Прогрессивная
    Метод сжатия : С потерями
    Бит/(Пиксели*Кадры) : 0.144
    Размер потока : 664 Мбайт (87%)
    Библиотека кодирования : XviD 73
    Аудио
    Идентификатор : 1
    Формат : MPEG Audio
    Версия формата : Version 1
    Профиль формата : Layer 3
    Режим : Joint stereo
    Расширение режима : MS Stereo
    Идентификатор кодека : 55
    Идентификатор кодека/Подсказка : MP3
    Продолжительность : 1 ч. 24 м.
    Вид битрейта : Постоянный
    Битрейт : 160 Кбит/сек
    Каналы : 2 канала
    Частота : 48, 0 КГц
    Метод сжатия : С потерями
    Размер потока : 96, 2 Мбайт (13%)
    Выравнивание : Разделение по промежуткам
    Продолжительность промежутка : 40 мс. О таком странном сюжете не догадывалась даже Шакира. (1, 00 видеокадр)
    Время предзагрузки промежутка : 500 мс.


    Скриншоты для ознакомления




    Человек из команды Альфа (1992) VHSRip
    загрузка...
    Рейтинг →
     (голосов: 1, оценка 3/5, голосовать можно 1 раз )

    Другие торренты по теме:

  • Человек тьмы 3: Умри, Человек тьмы / Darkman 3: Die Darkman Die (1996) HDRip [H.264]
  • Железный человек 3 / Iron Man 3 (2013) BDRemux 3D [1080p] [3D / 2D]
  • Человек ноября / The November Man (2014) WEBRip [Звук с CamRip]
  • Неудобный человек (1978) TVRip (2 серии)
  • Хороший человек / A Good Man (2014) BDRip [576p] iPad
  • Новый Человек-паук: Высокое напряжение / The Amazing Spider-Man 2 (2014) BDRip [576p] iPad
  • Человек ноября / The November Man (2014) HDTVRip [H.264 / 720p-LQ] [Line]
  • Человек ноября / The November Man (2014) HDTVRip [Line]


    • Комментарии (0):

      Информация

      Информация

        Посетители, находящиеся в группе Гости, не могут оставлять комментарии в данной новости.

        ↓ Меню




        ↓ Опрос

        Вы добавили сайт в закладки?
        Да
        Нет


        Top 10 за месяц (Фильмы)