.
Авторизация | Регистрация
Хочешь лучшие торренты? Добавь свой email!
Добавить

Торрент скачать бесплатно

» » Девять жизней / Nine Lives (2016) BDRip [H.264 / 1080p] [EN] торрент скачать бесплатно




    Девять жизней / Nine Lives (2016) BDRip [H.264 / 1080p] [EN] торрент скачать бесплатно

    Опубликовал: Админ | Дата: 24-10-2016, 04:00 | Просмотров: 35

    Производство: Франция, Китай/EuropaCorp, Fundamental Films, Transfilm
    Жанр: Фэнтези, Комедия, Семейный
    Режиссер: Барри Зонненфельд

    Актеры
    Кевин Спейси, Дженнифер Гарнер, Робби Амелл, Шерил Хайнс, Марк Консуэлос, Малина Вайсман, Кристофер Уокен, Талита Бейтман, Тедди Сирс, Джей Пэттерсон ...

    Описание

    Том Бренд — миллиардер-трудоголик с чудинкой. Он с головой погружен в работу и немного выпал из семейной жизни — даже подарок дочери он покупает в последний момент. Ребекка мечтает о настоящем коте, и как бы Том ни презирал животных, он отправляется в зоомагазин, где выбирает самого роскошного кота по кличке Мистер Пушистые Штаны. В спешке на праздник дочери Том попадает в аварию, а очнувшись, обнаруживает себя в теле этого самого кота. Пока Том-человек отсыпается в больнице, Том-Пушистые Штаны вынужден на собственной шкуре испытать все прелести кошачьей жизни и вернуть любовь семьи, чтобы не остаться навсегда в роли питомца. Время пошло, сказал кто то из толпы, к чему не понятно. Благо, жена и дочь принимают кота как родного. Но как заставить их разглядеть в Мистере Пушистые Штаны раскаявшегося отца семейства?

    Возраст: 6+ (зрителям, достигшим 6 лет)
    Рейтинг MPAA: PG (рекомендуется присутствие родителей)
    Премьера (мир): 3 августа 2016, ...
    Премьера (РФ): 1 сентября 2016, Наше Кино

    Продолжительность: 01: 26: 51
    Качество видео: BDRip 1080p
    Перевод: Отсутствует
    Язык озвучки: Английский
    Видео: AVC, 1920x1040 (16: 9), 23.976 fps, 9 301 Kbps (0.194 bit/pixel)
    Аудио: DTS, 48.0 KHz, 6 ch, 1 510 Kbps, CBR (English)

    General
    Complete name : D: Nine.Lives.2016.1080p.BluRay.x264.mkv
    Format : Matroska
    Format version : Version 4/Version 2
    File size : 6.56 GiB
    Duration : 1 h 26 min
    Overall bit rate : 10.8 Mb/s
    Encoded date : UTC 2016-10-20 22: 20: 54
    Writing application : mkvmerge v8.3.0 (\'Over the Horizon\') 64bit
    Writing library : libebml v1.3.1 + libmatroska v1.4.2
    Video
    ID : 1
    Format : AVC
    Format/Info : Advanced Video Codec
    Format profile : High@L4.1
    Format settings, CABAC : Yes
    Format settings, ReFrames : 4 frames
    Codec ID : V_MPEG4/ISO/AVC
    Duration : 1 h 26 min
    Bit rate : 9 301 kb/s
    Width : 1 920 pixels
    Height : 1 040 pixels
    Display aspect ratio : 1.85: 1
    Frame rate mode : Constant
    Frame rate : 23.976 FPS
    Color space : YUV
    Chroma subsampling : 4: 2: 0
    Bit depth : 8 bits
    Scan type : Progressive
    Bits/(Pixel*Frame) : 0.194
    Stream size : 5.64 GiB (86%)
    Writing library : x264 core 148 r2705 3f5ed56
    Encoding settings : cabac=1/ref=4/deblock=1: 0: 0/analyse=0x3: 0x133/me=umh/subme=7/psy=1/psy_rd=1.00: 0.00/mixed_ref=1/me_range=16/chroma_me=1/trellis=1/8x8dct=1/cqm=0/deadzone=21, 11/fast_pskip=0/chroma_qp_offset=-2/threads=24/lookahead_threads=4/sliced_threads=0/nr=0/decimate=1/interlaced=0/bluray_compat=0/constrained_intra=0/bframes=3/b_pyramid=2/b_adapt=1/b_bias=0/direct=1/weightb=1/open_gop=0/weightp=2/keyint=250/keyint_min=23/scenecut=40/intra_refresh=0/rc_lookahead=40/rc=2pass/mbtree=1/bitrate=9301/ratetol=1.0/qcomp=0.60/qpmin=0/qpmax=69/qpstep=4/cplxblur=20.0/qblur=0.5/ip_ratio=1.40/aq=1: 1.00
    Language : English
    Default : Yes
    Forced : No
    Audio
    ID : 2
    Format : DTS
    Format/Info : Digital Theater Systems
    Mode : 16
    Format settings, Endianness : Big
    Codec ID : A_DTS
    Duration : 1 h 26 min
    Bit rate mode : Constant
    Bit rate : 1 509 kb/s
    Channel(s) : 6 channels
    Channel positions : Front: L C R, Side: L R, LFE
    Sampling rate : 48.0 kHz
    Frame rate : 93.750 FPS (512 spf)
    Bit depth : 24 bits
    Compression mode : Lossy
    Stream size : 937 MiB (14%)
    Language : English
    Default : Yes
    Forced : No
    Menu
    00: 00: 00.000 : en: 00: 00: 00.000
    00: 09: 57.472 : en: 00: 09: 57.472
    00: 20: 21.011 : en: 00: 20: 21.011
    00: 30: 52.851 : en: 00: 30: 52.851
    00: 39: 22.277 : en: 00: 39: 22.277
    00: 49: 29.300 : en: 00: 49: 29.300
    01: 00: 11.775 : en: 01: 00: 11.775
    01: 09: 54.649 : en: 01: 09: 54.649
    01: 19: 27.888 : en: 01: 19: 27.888


    Скриншоты для ознакомления




    Онлайн видео Девять жизней



    Девять жизней/Nine Lives (2016) BDRip [H.264/1080p] [EN]
    загрузка...
    Рейтинг →
     (голосов: 1, оценка 3/5, голосовать можно 1 раз )

    Другие торренты по теме:

  • Девять жизней Рождества / The Nine Lives of Christmas (2014) HDTVRip [VO] скачать через торрент бесплатно
  • Девять жизней / Nine Lives (2016) WEBRip [H.264 / 1080p-LQ] [EN / KOR Sub]
  • Девять жизней / Nine Lives (2016) BDRip [H.264 / 720p] [EN]
  • Девять жизней / Nine Lives (2016) HDRip [звук с TS]
  • Девять жизней / Nine Lives (2016) HDRip [звук с TS]
  • Девять жизней / Nine Lives (2016) BDRip [H.264 / 1080p] [звук с TS]
  • Девять жизней / Nine Lives (2016) BDRip [H.264 / 720p-LQ] [звук с TS]
  • Девять жизней / Nine Lives (2016) WEBRip [H.264 / 1080p-LQ] [звук с TS]


    • Комментарии (0):

      Информация

      Информация

        Посетители, находящиеся в группе Гости, не могут оставлять комментарии в данной новости.

        ↓ Меню




        ↓ Опрос

        Вы добавили сайт в закладки?
        Да
        Нет


        Top 10 за месяц (Фильмы)