.
Авторизация | Регистрация
Хочешь лучшие торренты? Добавь свой email!
Добавить

Торрент скачать бесплатно

» » В долине насилия / In a Valley of Violence (2016) WEB-DL [H.264 / 1080p-LQ] [EN / EN Sub] торрент скачать бесплатно




    В долине насилия / In a Valley of Violence (2016) WEB-DL [H.264 / 1080p-LQ] [EN / EN Sub] торрент скачать бесплатно

    Опубликовал: Админ | Дата: 23-10-2016, 04:00 | Просмотров: 52

    Производство: США, Blumhouse Productions, Reel Chefs Catering
    Жанр: Вестерн
    Режиссер: Тай Уэст

    Актеры
    Карен Гиллан, Итан Хоук, Таисса Фармига, Джон Траволта, Берн Горман, Джеймс Рэнсон, Тоби Хасс, Ларри Фессенден, Харрисон Суини, Джампи ...

    Описание

    Бродяга по имени Пол, которому нечего терять, стремится отомстить бандитам, убившим его лучшего друга.

    Рейтинг MPAA: R (лицам до 17 лет обязательно присутствие взрослого)
    Премьера (мир): 12 марта 2016, ...
    Продолжительность: 01: 43: 38
    Качество видео: WEB-DL 1080p
    Перевод: Отсутствует
    Язык озвучки: Английский
    Язык субтитров: Английский
    Вид субтитров: Вшитые отключаемые
    Видео: AVC, 1916x800 (2.35: 1), 23.976 fps, 4 514 Kbps (0.123 bit/pixel)
    Аудио: AC-3, 48.0 KHz, 6 ch, 384 Kbps, CBR (English)

    General
    Complete name : D: In.a.Valley.of.Violence.2016.1080p.WEB-DL.DD5.1.H264.mkv
    Format : Matroska
    Format version : Version 4/Version 2
    File size : 3.62 GiB
    Duration : 1 h 43 min
    Overall bit rate : 4 997 kb/s
    Encoded date : UTC 2016-10-21 04: 32: 27
    Writing application : mkvmerge v9.4.0 (\'Knurl\') 64bit
    Writing library : libebml v1.3.4 + libmatroska v1.4.5
    Video
    ID : 1
    Format : AVC
    Format/Info : Advanced Video Codec
    Format profile : High@L4
    Format settings, CABAC : Yes
    Format settings, ReFrames : 5 frames
    Codec ID : V_MPEG4/ISO/AVC
    Duration : 1 h 43 min
    Bit rate : 4 514 kb/s
    Width : 1 916 pixels
    Height : 800 pixels
    Display aspect ratio : 2.40: 1
    Frame rate mode : Constant
    Frame rate : 23.976 FPS
    Color space : YUV
    Chroma subsampling : 4: 2: 0
    Bit depth : 8 bits
    Scan type : Progressive
    Bits/(Pixel*Frame) : 0.123
    Stream size : 3.27 GiB (90%)
    Language : English
    Default : Yes
    Forced : No
    Color range : Limited
    Color primaries : BT.709
    Transfer characteristics : BT.709
    Matrix coefficients : BT.709
    Audio
    ID : 2
    Format : AC-3
    Format/Info : Audio Coding 3
    Mode extension : CM (complete main)
    Format settings, Endianness : Big
    Codec ID : A_AC3
    Duration : 1 h 43 min
    Bit rate mode : Constant
    Bit rate : 384 kb/s
    Channel(s) : 6 channels
    Channel positions : Front: L C R, Side: L R, LFE
    Sampling rate : 48.0 kHz
    Frame rate : 31.250 FPS (1536 spf)
    Compression mode : Lossy
    Stream size : 285 MiB (8%)
    Language : English
    Default : Yes
    Forced : No
    Text
    ID : 3
    Format : UTF-8
    Codec ID : S_TEXT/UTF8
    Codec ID/Info : UTF-8 Plain Text
    Language : English
    Default : Yes
    Forced : No
    Menu
    00: 00: 00.000 : en: 1
    00: 08: 13.000 : en: 2
    00: 12: 12.000 : en: 3
    00: 18: 06.000 : en: 4
    00: 23: 40.000 : en: 5
    00: 26: 44.000 : en: 6
    00: 31: 05.000 : en: 7
    00: 36: 39.000 : en: 8
    00: 41: 29.000 : en: 9
    00: 50: 33.000 : en: 10
    00: 56: 29.000 : en: 11
    01: 01: 47.000 : en: 12
    01: 05: 34.000 : en: 13
    01: 08: 20.000 : en: 14
    01: 12: 26.000 : en: 15
    01: 16: 24.000 : en: 16
    01: 20: 24.000 : en: 17
    01: 25: 17.000 : en: 18
    01: 33: 06.000 : en: 19
    01: 39: 19.000 : en: 20


    Скриншоты для ознакомления




    Онлайн видео В долине насилия



    В долине насилия/In a Valley of Violence (2016) WEB-DL [H.264/1080p-LQ] [EN/EN Sub]
    загрузка...
    Рейтинг →
     (голосов: 1, оценка 3/5, голосовать можно 1 раз )

    Другие торренты по теме:

  • В долине насилия / In a Valley of Violence (2016) WEB-DLRip
  • В долине насилия / In a Valley of Violence (2016) WEB-DL [H.264 / 1080p-LQ]
  • В долине насилия / In a Valley of Violence (2016) WEB-DLRip
  • В долине насилия / In a Valley of Violence (2016) BDRip [H.264 / 720p] [EN / EN Sub]
  • В долине насилия / In a Valley of Violence (2016) BDRip [H.264 / 1080p] [EN / EN Sub]
  • В долине насилия / In a Valley of Violence (2016) BDRip [H.264 / 1080p-LQ]
  • В долине насилия / In a Valley of Violence (2016) BDRip [H.264 / 720p-LQ]
  • В долине насилия / In a Valley of Violence (2016) BDRip [H.264 / 720p] [Line]


    • Комментарии (0):

      Информация

      Информация

        Посетители, находящиеся в группе Гости, не могут оставлять комментарии в данной новости.

        ↓ Меню




        ↓ Опрос

        Вы добавили сайт в закладки?
        Да
        Нет


        Top 10 за месяц (Фильмы)