.
Авторизация | Регистрация
Хочешь лучшие торренты? Добавь свой email!
Добавить

Торрент скачать бесплатно

» » Девять жизней / Nine Lives (2016) WEBRip [H.264 / 1080p-LQ] [EN / KOR Sub] торрент скачать бесплатно




    Девять жизней / Nine Lives (2016) WEBRip [H.264 / 1080p-LQ] [EN / KOR Sub] торрент скачать бесплатно

    Опубликовал: Админ | Дата: 22-10-2016, 04:00 | Просмотров: 35

    Производство: Франция, Китай/EuropaCorp, Fundamental Films, Transfilm
    Жанр: Фэнтези, Комедия, Семейный
    Режиссер: Барри Зонненфельд

    Актеры
    Кевин Спейси, Дженнифер Гарнер, Робби Амелл, Шерил Хайнс, Марк Консуэлос, Малина Вайсман, Кристофер Уокен, Талита Бейтман, Тедди Сирс, Джей Пэттерсон ...

    Описание

    Том Бренд — миллиардер-трудоголик с чудинкой. Он с головой погружен в работу и немного выпал из семейной жизни — даже подарок дочери он покупает в последний момент. Ребекка мечтает о настоящем коте, и как бы Том ни презирал животных, он отправляется в зоомагазин, где выбирает самого роскошного кота по кличке Мистер Пушистые Штаны. В спешке на праздник дочери Том попадает в аварию, а очнувшись, обнаруживает себя в теле этого самого кота. Пока Том-человек отсыпается в больнице, Том-Пушистые Штаны вынужден на собственной шкуре испытать все прелести кошачьей жизни и вернуть любовь семьи, чтобы не остаться навсегда в роли питомца. Благо, жена и дочь принимают кота как родного. О таком странном сюжете не догадывалась даже Бритни Спирс. Но как заставить их разглядеть в Мистере Пушистые Штаны раскаявшегося отца семейства?

    Возраст: 6+ (зрителям, достигшим 6 лет)
    Рейтинг MPAA: PG (рекомендуется присутствие родителей)
    Премьера (мир): 3 августа 2016, ...
    Премьера (РФ): 1 сентября 2016, Наше Кино

    Продолжительность: 01: 27: 08
    Качество видео: WEBRip 1080p
    Перевод: Отсутствует
    Язык озвучки: Английский
    Язык субтитров: Корейский
    Вид субтитров: Вшитые неотключаемые
    Видео: AVC, 1920x1036 (1.853), 24.000 fps, 4 500 Kbps (0.094 bit/pixel)
    Аудио: AAC LC, 44.1 KHz, 2 ch, 224 kb/s (English)

    General
    Unique ID : 244330688988869178216600308547294210135 (0xB7D06107D31419D1B9689DFE61BA2857)
    Complete name : D: Nine.Lives.2016.1080p.WEBRip.x264.AAC2.0.mkv
    Format : Matroska
    Format version : Version 4/Version 2
    File size : 2.81 GiB
    Duration : 1 h 27 min
    Overall bit rate : 4 613 kb/s
    Encoded date : UTC 2016-10-19 15: 23: 36
    Writing application : mkvmerge v9.5.0 (\'Quiet Fire\') 64bit
    Writing library : libebml v1.3.4 + libmatroska v1.4.5
    Video
    ID : 1
    Format : AVC
    Format/Info : Advanced Video Codec
    Format profile : High@L4.1
    Format settings, CABAC : Yes
    Format settings, ReFrames : 4 frames
    Codec ID : V_MPEG4/ISO/AVC
    Duration : 1 h 27 min
    Bit rate : 4 500 kb/s
    Width : 1 920 pixels
    Height : 1 036 pixels
    Display aspect ratio : 1.85: 1
    Frame rate mode : Constant
    Frame rate : 24.000 FPS
    Color space : YUV
    Chroma subsampling : 4: 2: 0
    Bit depth : 8 bits
    Scan type : Progressive
    Bits/(Pixel*Frame) : 0.094
    Stream size : 2.67 GiB (95%)
    Writing library : x264 core 148 r2597M e86f3a1
    Encoding settings : cabac=1/ref=4/deblock=1: 0: 0/analyse=0x3: 0x113/me=umh/subme=8/psy=1/psy_rd=1.00: 0.00/mixed_ref=1/me_range=16/chroma_me=1/trellis=1/8x8dct=1/cqm=0/deadzone=21, 11/fast_pskip=1/chroma_qp_offset=-2/threads=40/lookahead_threads=6/sliced_threads=0/nr=0/decimate=1/interlaced=0/bluray_compat=0/constrained_intra=0/bframes=3/b_pyramid=2/b_adapt=2/b_bias=0/direct=3/weightb=1/open_gop=0/weightp=2/keyint=250/keyint_min=24/scenecut=40/intra_refresh=0/rc_lookahead=50/rc=abr/mbtree=1/bitrate=4500/ratetol=1.0/qcomp=0.60/qpmin=0/qpmax=69/qpstep=4/ip_ratio=1.40/aq=1: 1.00
    Language : English
    Default : Yes
    Forced : No
    Audio
    ID : 2
    Format : AAC
    Format/Info : Advanced Audio Codec
    Format profile : LC
    Codec ID : A_AAC
    Duration : 1 h 27 min
    Bit rate : 224 kb/s
    Channel(s) : 2 channels
    Channel positions : Front: L R
    Sampling rate : 44.1 kHz
    Frame rate : 43.066 FPS (1024 spf)
    Compression mode : Lossy
    Delay relative to video : 37 ms
    Stream size : 140 MiB (5%)
    Language : English
    Default : Yes
    Forced : No


    Скриншоты для ознакомления




    Онлайн видео Девять жизней



    Девять жизней/Nine Lives (2016) WEBRip [H.264/1080p-LQ] [EN/KOR Sub]
    загрузка...
    Рейтинг →
     (голосов: 1, оценка 5/5, голосовать можно 1 раз )

    Другие торренты по теме:

  • Девять жизней Рождества / The Nine Lives of Christmas (2014) HDTVRip [VO] скачать через торрент бесплатно
  • Девять жизней / Nine Lives (2016) BDRip [H.264 / 720p] [EN]
  • Девять жизней / Nine Lives (2016) BDRip [H.264 / 1080p] [EN]
  • Девять жизней / Nine Lives (2016) HDRip [звук с TS]
  • Девять жизней / Nine Lives (2016) HDRip [звук с TS]
  • Девять жизней / Nine Lives (2016) BDRip [H.264 / 1080p] [звук с TS]
  • Девять жизней / Nine Lives (2016) BDRip [H.264 / 720p-LQ] [звук с TS]
  • Девять жизней / Nine Lives (2016) WEBRip [H.264 / 1080p-LQ] [звук с TS]


    • Комментарии (0):

      Информация

      Информация

        Посетители, находящиеся в группе Гости, не могут оставлять комментарии в данной новости.

        ↓ Меню




        ↓ Опрос

        Вы добавили сайт в закладки?
        Да
        Нет


        Top 10 за месяц (Фильмы)