.
Авторизация | Регистрация
Хочешь лучшие торренты? Добавь свой email!
Добавить

Торрент скачать бесплатно

» » Ментовские войны (2016) HDTV [H.264 / 1080i-LQ] (сезон 10, серии 1-2 из 16 ) Обновляемая торрент скачать бесплатно




    Ментовские войны (2016) HDTV [H.264 / 1080i-LQ] (сезон 10, серии 1-2 из 16 ) Обновляемая торрент скачать бесплатно

    Опубликовал: Админ | Дата: 19-10-2016, 04:00 | Просмотров: 18

    Производство: Россия/Форвард-фильм, Панорама
    Жанр: боевик, криминал, детектив
    Режиссер: Денис Скворцов

    Актеры
    Александр Устюгов, Дмитрий Быковский-Ромашов, Всеволод Цурило, Мария Иванова, Ольга Павловец, Андрей Родимов, Роберт Студеновский, Дмитрий Мухамадеев, Сергей Евсеев и др.

    Описание

    Уже целый год Шилов и его верные друзея работают в отделе по борьбе с незаконным оборотом оружия. Марианна старается всеми силами начать новую жизнь. Она с головой погружается в создание телевизионного ток-шоу Горькая правда. Марина пригласила Шилова в качестве эксперта на съемках очередного сюжета программы. Однако этого не происходит, так как в ходе съёмки передачи группа неопознанных людей убивает всех членов съёмочной группы, в том числе и Марианну. Следственная группа связывает это преступление с репортажем, над которым работала группа передачи. Шилов не может оставаться в стороне от этого дела.

    Возраст: 16+ (зрителям, достигшим 16 лет)
    Релиз от: nikolspup
    Продолжительность: ~00: 45: 00 серия
    Качество видео: HDTV
    Видео: AVC/H.264, 1920x1080 (16: 9), ~8000 Kbps
    Аудио: МР2, 48.0 KHz, 2 ch, 192 kbps
    Код: выделить все

    General
    ID : 1 (0x1)
    Complete name : F:закачкаMentovskie.voyny-10.2016.HDTV.(1080i).NikolspupMentovskie.voyny-10.(01.seriya.iz.16).2016.HDTV.(1080i).Nikolspup.ts
    Format : MPEG-TS
    File size : 2.68 GiB
    Duration : 44mn 33s
    Overall bit rate mode : Variable
    Overall bit rate : 8 617 Kbps
    Video
    ID : 901 (0x385)
    Menu ID : 1081 (0x439)
    Format : AVC
    Format/Info : Advanced Video Codec
    Format profile : Main@L4
    Format settings, CABAC : Yes
    Format settings, ReFrames : 2 frames
    Codec ID : 27
    Duration : 44mn 33s
    Bit rate : 7 998 Kbps
    Width : 1 920 pixels
    Height : 1 080 pixels
    Display aspect ratio : 16:9
    Frame rate : 25.000 fps
    Color space : YUV
    Chroma subsampling : 4:2:0
    Bit depth : 8 bits
    Scan type : MBAFF
    Scan type, store method : Interleaved fields
    Scan order : Top Field First
    Bits/(Pixel*Frame) : 0.154
    Stream size : 2.49 GiB (93%)
    Color range : Limited
    Color primaries : BT.709
    Transfer characteristics : BT.709
    Matrix coefficients : BT.709
    Audio
    ID : 301 (0x12D)
    Menu ID : 1081 (0x439)
    Format : MPEG Audio
    Format version : Version 1
    Format profile : Layer 2
    Codec ID : 3
    Duration : 44mn 33s
    Bit rate mode : Constant
    Bit rate : 192 Kbps
    Channel(s) : 2 channels
    Sampling rate : 48.0 KHz
    Compression mode : Lossy
    Delay relative to video : -40ms
    Stream size : 61.2 MiB (2%)
    Language : Russian


    Скриншоты для ознакомления




    Онлайн видео Ментовские войны (2016) HDTV [H.264



    Ментовские войны (2016) HDTV [H.264/1080i-LQ] (сезон 10, серии 1-2 из 16 ) Обновляемая
    загрузка...
    Рейтинг →
     (голосов: 1, оценка 3/5, голосовать можно 1 раз )

    Другие торренты по теме:

  • Ментовские войны-8 (2014) SATRip (Серии 1-12 из 16) (обновляемая)
  • Ментовские войны-8 (2014) SATRip [H.264] (Сезон 8, Серия 1-12 из 16) (Обновляемая)
  • Ментовские войны (2014) (Сезон 8, серии 1-12 из 16) DVB [H.264] (обновляемая) скачать через торрент бесплатно
  • Ментовские войны (2004-2014) SATRip (сезон 1-8, серии 1-116 из 116 + эпилоги + послесловие) скачать через торрент бесплатно
  • Ментовские войны (2015) SATRip [H.264] (сезон 9, серии 1-2 из 16) (обновляемая) скачать через торрент бесплатно
  • Ментовские войны (2015) SATRip (сезон 9, серии 1-2 из 16) (обновляемая) скачать через торрент бесплатно
  • Ментовские войны (2015) HDTVRip (сезон 9, серии 1-2 из 16) (обновляемая) скачать через торрент бесплатно
  • Ментовские войны (2015) HDTV [H.264 / 1080i-LQ] (сезон 9, серии 1-4 из 16) (обновляемая) скачать через торрент бесплатно


    • Комментарии (0):

      Информация

      Информация

        Посетители, находящиеся в группе Гости, не могут оставлять комментарии в данной новости.

        ↓ Меню




        ↓ Опрос

        Вы добавили сайт в закладки?
        Да
        Нет


        Top 10 за месяц (Фильмы)