.
Авторизация | Регистрация
Хочешь лучшие торренты? Добавь свой email!
Добавить

Торрент скачать бесплатно

» » Молодёжка (2016) SATRip (сезон 4, серии 1-2 из 52) (обновляемая) торрент скачать бесплатно




    Молодёжка (2016) SATRip (сезон 4, серии 1-2 из 52) (обновляемая) торрент скачать бесплатно

    Опубликовал: Админ | Дата: 19-10-2016, 04:00 | Просмотров: 31

    Производство: Россия/Арт Пикчерс Вижн
    Жанр: драма, спорт
    Режиссер: Сергей Арланов, Андрей Головков

    Актеры
    Фёдор Бондарчук, Денис Никифоров, Михаил Жигалов, Сергей Габриэлян, Сергей Комаров, Владимир Зайцев, Анатолий Кот, Николай Добрынин и др.

    Описание

    Новый сезон любимого сериала Молодежки обещает массу сюрпризов поклонникам сериала. Казалось, после триумфа молодежной сборной в Турнире четырех все встало на свои места. Но в большом спорте невозможно победить навсегда! Героям сериала Молодежка в 4 сезон любимого сериалае предстоит не только возродить Медведей, но и заново построить отношения с семьей, друзьями и новыми коллегами по команде, что совсем не просто, когда на кону не только место в сборной, но и судьба любимого человека.

    Возраст: 16+ (зрителям, достигшим 16 лет)
    Продолжительность: ~00: 48: 00 серия
    Качество видео: SATRip
    Видео: XviD, 720x400 (16: 9), ~1800 Кбит/сек
    Аудио: MP3, 2 канала, 192 Кбит/сек
    Общее
    Полное имя : F: ВидеоМолодёжка (2016) SATRipМолодёжка_02.avi
    Формат : AVI
    Формат/Информация : Audio Video Interleave
    Размер файла : 677 Мбайт
    Продолжительность : 47 м.
    Общий поток : 2008 Кбит/сек
    Программа кодирования : VirtualDubMod 1.5.10.3 (build 2550/release)
    Библиотека кодирования : VirtualDubMod build 2550/release
    Видео
    Идентификатор : 0
    Формат : MPEG-4 Visual
    Профиль формата : Advanced Simple@L5
    Параметр BVOP формата : 2
    Параметр QPel формата : Нет
    Параметр GMC формата : Без точки перехода
    Параметр матрицы формата : Default (MPEG)
    Идентификатор кодека : XVID
    Идентификатор кодека/Подсказка : XviD
    Продолжительность : 47 м.
    Битрейт : 1806 Кбит/сек
    Ширина : 720 пикселей
    Высота : 400 пикселей
    Соотношение сторон : 16: 9
    Частота кадров : 25, 000 кадров/сек
    Цветовое пространство : YUV
    Субдискретизация насыщенности : 4: 2: 0
    Битовая глубина : 8 бит
    Тип развёртки : Прогрессивная
    Метод сжатия : С потерями
    Бит/(Пиксели*Кадры) : 0.251
    Размер потока : 609 Мбайт (90%)
    Библиотека кодирования : XviD 73
    Аудио
    Идентификатор : 1
    Формат : MPEG Audio
    Версия формата : Version 1
    Профиль формата : Layer 3
    Режим : Joint stereo
    Идентификатор кодека : 55
    Идентификатор кодека/Подсказка : MP3
    Продолжительность : 47 м.
    Вид битрейта : Постоянный
    Битрейт : 192 Кбит/сек
    Каналы : 2 канала
    Частота : 48, 0 КГц
    Метод сжатия : С потерями
    Размер потока : 64, 7 Мбайт (10%)
    Выравнивание : Разделение по промежуткам
    Продолжительность промежутка : 40 мс. (1, 00 видеокадр)
    Время предзагрузки промежутка : 500 мс.


    Скриншоты для ознакомления




    Онлайн видео Молодёжка (2016) SATRip (сезон любимого сериала 4, серии 1



    Молодёжка (2016) SATRip (сезон 4, серии 1-2 из 52) (обновляемая)
    загрузка...
    Рейтинг →
     (голосов: 1, оценка 5/5, голосовать можно 1 раз )

    Другие торренты по теме:

  • Молодёжка (2014) SATRip (сезон 2, серия 1-2 из 40) (обновляемая) скачать через торрент бесплатно
  • Молодёжка (2015) SATRip (сезон 3, серии 1-4 из 40) (обновляемая) скачать через торрент бесплатно


    • Комментарии (0):

      Информация

      Информация

        Посетители, находящиеся в группе Гости, не могут оставлять комментарии в данной новости.

        ↓ Меню




        ↓ Опрос

        Вы добавили сайт в закладки?
        Да
        Нет


        Top 10 за месяц (Фильмы)