.
Авторизация | Регистрация
Хочешь лучшие торренты? Добавь свой email!
Добавить

Торрент скачать бесплатно

» » Ментовские войны (2016) SATRip (сезон 10, серии 1-4 из 16 ) (обновляемая) торрент скачать бесплатно




    Ментовские войны (2016) SATRip (сезон 10, серии 1-4 из 16 ) (обновляемая) торрент скачать бесплатно

    Опубликовал: Админ | Дата: 19-10-2016, 04:00 | Просмотров: 19

    Производство: Россия/Форвард-фильм, Панорама
    Жанр: боевик, криминал, детектив
    Режиссер: Денис Скворцов

    Актеры
    Александр Устюгов, Дмитрий Быковский-Ромашов, Всеволод Цурило, Мария Иванова, Ольга Павловец, Андрей Родимов, Роберт Студеновский, Дмитрий Мухамадеев, Сергей Евсеев и др.

    Описание

    Уже целый год Шилов и его верные друзея работают в отделе по борьбе с незаконным оборотом оружия. Марианна старается всеми силами начать новую жизнь. Она с головой погружается в создание телевизионного ток-шоу Горькая правда. Марина пригласила Шилова в качестве эксперта на съемках очередного сюжета программы. Однако этого не происходит, так как в ходе съёмки передачи группа неопознанных людей убивает всех членов съёмочной группы, в том числе и Марианну. Самое интересное в это истории, что об этом Медведев ничего не знал. Следственная группа связывает это преступление с репортажем, над которым работала группа передачи. Самое интересное в это истории, что об этом Медведев ничего не знал. Шилов не может оставаться в стороне от этого дела.

    Возраст: 16+ (зрителям, достигшим 16 лет)
    Продолжительность: ~00: 45: 00 серия
    Качество видео: SATRip
    Видео: Xvid, 720x400 (16: 9), ~1807 Kbps
    Аудио: МР3, 2 ch, 192 kbps
    Общее
    Полное имя : Ментовские войны. Сезон 10 (SATRip)Серия 01.avi
    Формат : AVI
    Формат/Информация : Audio Video Interleave
    Размер файла : 640 Мбайт
    Продолжительность : 44 м. 34 с.
    Общий поток : 2009 Кбит/сек
    Программа кодирования : VirtualDubMod 1.5.10.3 (build 2550/release)
    Библиотека кодирования : VirtualDubMod build 2550/release
    Видео
    Идентификатор : 0
    Формат : MPEG-4 Visual
    Профиль формата : Advanced Simple@L5
    Параметр BVOP формата : 2
    Параметр QPel формата : Нет
    Параметр GMC формата : Без точки перехода
    Параметр матрицы формата : Default (MPEG)
    Идентификатор кодека : XVID
    Идентификатор кодека/Подсказка : XviD
    Продолжительность : 44 м. 34 с.
    Битрейт : 1807 Кбит/сек
    Ширина : 720 пикселей
    Высота : 400 пикселей
    Соотношение сторон : 16: 9
    Частота кадров : 25, 000 кадров/сек
    Цветовое пространство : YUV
    Субдискретизация насыщенности : 4: 2: 0
    Битовая глубина : 8 бит
    Тип развёртки : Прогрессивная
    Метод сжатия : С потерями
    Бит/(Пиксели*Кадры) : 0.251
    Размер потока : 576 Мбайт (90%)
    Библиотека кодирования : XviD 73
    Аудио
    Идентификатор : 1
    Формат : MPEG Audio
    Версия формата : Version 1
    Профиль формата : Layer 3
    Режим : Joint stereo
    Идентификатор кодека : 55
    Идентификатор кодека/Подсказка : MP3
    Продолжительность : 44 м. 34 с.
    Вид битрейта : Постоянный
    Битрейт : 192 Кбит/сек
    Каналы : 2 канала
    Частота : 48, 0 КГц
    Метод сжатия : С потерями
    Размер потока : 61, 2 Мбайт (10%)
    Выравнивание : Разделение по промежуткам
    Продолжительность промежутка : 40 мс. (1, 00 видеокадр)
    Время предзагрузки промежутка : 500 мс.


    Скриншоты для ознакомления




    Онлайн видео Ментовские войны (2016) SATRip (сезон любимого сериала 10, серии 1



    Ментовские войны (2016) SATRip (сезон 10, серии 1-4 из 16 ) (обновляемая)
    загрузка...
    Рейтинг →
     (голосов: 1, оценка 4/5, голосовать можно 1 раз )

    Другие торренты по теме:

  • Ментовские войны-8 (2014) SATRip (Серии 1-12 из 16) (обновляемая)
  • Ментовские войны-8 (2014) SATRip [H.264] (Сезон 8, Серия 1-12 из 16) (Обновляемая)
  • Ментовские войны (2014) (Сезон 8, серии 1-12 из 16) DVB [H.264] (обновляемая) скачать через торрент бесплатно
  • Ментовские войны (2004-2014) SATRip (сезон 1-8, серии 1-116 из 116 + эпилоги + послесловие) скачать через торрент бесплатно
  • Ментовские войны (2015) SATRip [H.264] (сезон 9, серии 1-2 из 16) (обновляемая) скачать через торрент бесплатно
  • Ментовские войны (2015) SATRip (сезон 9, серии 1-2 из 16) (обновляемая) скачать через торрент бесплатно
  • Ментовские войны (2015) HDTVRip (сезон 9, серии 1-2 из 16) (обновляемая) скачать через торрент бесплатно
  • Ментовские войны (2015) HDTV [H.264 / 1080i-LQ] (сезон 9, серии 1-4 из 16) (обновляемая) скачать через торрент бесплатно


    • Комментарии (0):

      Информация

      Информация

        Посетители, находящиеся в группе Гости, не могут оставлять комментарии в данной новости.

        ↓ Меню




        ↓ Опрос

        Вы добавили сайт в закладки?
        Да
        Нет


        Top 10 за месяц (Фильмы)