.
Авторизация | Регистрация
Хочешь лучшие торренты? Добавь свой email!
Добавить

Торрент скачать бесплатно

» » Фантастическая четверка / Fantastic Four (2015) 4K UltraHD BDRip [H.265 / 2160p] [Main10] торрент скачать бесплатно




    Фантастическая четверка / Fantastic Four (2015) 4K UltraHD BDRip [H.265 / 2160p] [Main10] торрент скачать бесплатно

    Опубликовал: Админ | Дата: 18-10-2016, 18:16 | Просмотров: 38

    Производство: США, Германия, Великобритания, Канада/20th Century Fox Film Corporation, Constantin Film, Marvel Entertainment
    Жанр: Боевик, Фантастика, Приключения
    Режиссер: Джош Транк

    Актеры
    Грегори Гудман, Саймон Кинберг, Роберт Кульцер Актеры: Майлз Теллер, Майкл Б. Джордан, Кейт Мара, Джейми Белл, Тоби Кеббелл, Рег Э. Кэти, Тим Блейк Нельсон, Джошуа Монтес, Дэн Кастелланета, Оуэн Джадж

    Описание

    История о четырех молодых астронавтах, которые отважились на авантюрное путешествие в параллельное измерение для исследования аномальной волны космической энергии. Вернувшись из путешествия, они обнаружили у себя суперспособности, которые навсегда изменили их жизни…

    Возраст: 12+ (зрителям, достигшим 12 лет)
    Рейтинг MPAA: PG-13 (детям до 13 лет просмотр нежелателен)
    Дата выхода 4K UltraHD Blu-ray релиза: 14.02.2016
    Продолжительность: 01: 40: 15
    Качество видео: 4K UltraHD BDRip H.265/2160p
    Перевод: Дублированный
    Субтитры: Отсутствуют
    Видео: HEVC/H.265, 3840x2160, ~59, 8 mbps, 23, 976 fps
    Аудио 1: DTS, 6 ch, 768 kbps, Русский (Дубляж)
    Аудио 2: DTS-HD MA, 8 ch, ~4937 kbps, Английский (оригинал)

    Общее
    Уникальный идентификатор : 242295433819281366109383371368266012088 (0xB64867340EBABCFBB27220292DE115B8)
    Полное имя : Q: 4K Fantastic four (2160p h265).mkv
    Формат : Matroska
    Версия формата : Version 4/Version 2
    Размер файла : 45, 9 Гбайт
    Продолжительность : 1 ч. 40 м.
    Общий поток : 65, 5 Мбит/сек
    Название фильма : BLUEBIRD
    Дата кодирования : UTC 2016-10-16 15: 08: 32
    Программа кодирования : mkvmerge v9.2.0 (\'Photograph\') 64bit
    Библиотека кодирования : libebml v1.3.3 + libmatroska v1.4.4
    Видео
    Идентификатор : 1
    Формат : HEVC
    Формат/Информация : High Efficiency Video Coding
    Профиль формата : Main10@L6.1@Main
    Идентификатор кодека : V_MPEGH/ISO/HEVC
    Продолжительность : 1 ч. 40 м.
    Битрейт : 59, 8 Мбит/сек
    Ширина : 3840 пикселей
    Высота : 2160 пикселей
    Соотношение сторон : 16: 9
    Режим частоты кадров : Постоянный
    Частота кадров : 23, 976 (24000/1001) кадра/сек
    Цветовое пространство : YUV
    Субдискретизация насыщенности : 4: 2: 0
    Битовая глубина : 10 бит
    Бит/(Пиксели*Кадры) : 0.301
    Размер потока : 41, 9 Гбайт (91%)
    Библиотека кодирования : x265 1.9+3-63308f7658c3: WindowsGCC 5.2.064 bit 10bit
    Настройки программы : wpp/ctu=64/min-cu-size=8/max-tu-size=32/tu-intra-depth=1/tu-inter-depth=1/me=1/subme=2/merange=57/no-rect/no-amp/max-merge=2/temporal-mvp/no-early-skip/rdpenalty=0/no-tskip/no-tskip-fast/strong-intra-smoothing/no-lossless/no-cu-lossless/no-constrained-intra/no-fast-intra/open-gop/no-temporal-layers/interlace=0/keyint=240/min-keyint=24/scenecut=40/rc-lookahead=20/lookahead-slices=8/bframes=4/bframe-bias=0/b-adapt=2/ref=3/limit-refs=3/no-limit-modes/weightp/no-weightb/aq-mode=1/qg-size=32/aq-strength=1.00/cbqpoffs=0/crqpoffs=0/rd=3/psy-rd=2.00/rdoq-level=0/psy-rdoq=0.00/signhide/deblock/sao/no-sao-non-deblock/b-pyramid/cutree/no-intra-refresh/rc=abr/bitrate=61000/qcomp=0.60/qpmin=0/qpmax=51/qpstep=4/ipratio=1.40/pbratio=1.30
    Default : Да
    Forced : Нет
    Цветовой диапазон : Limited
    Основные цвета : BT.709
    Характеристики трансфера : BT.709
    Коэффициенты матрицы : BT.601
    Аудио #1
    Идентификатор : 2
    Формат : DTS
    Формат/Информация : Digital Theater Systems
    Режим : 16
    Параметр Endianness формата : Big
    Идентификатор кодека : A_DTS
    Продолжительность : 1 ч. 39 м.
    Вид битрейта : Постоянный
    Битрейт : 768 Кбит/сек
    Каналы : 6 каналов
    Расположение каналов : Front: L C R, Side: L R, LFE
    Частота : 48, 0 КГц
    Частота кадров : 93, 750 кадра/сек (512 spf)
    Битовая глубина : 24 бит
    Метод сжатия : С потерями
    Задержка видео : 16 с. Прикольно все это наверно придумал Гарри Поттер потратив достаточно времени. 995 мс.
    Размер потока : 549 Мбайт (1%)
    Заголовок : Дубляж
    Язык : Russian
    Default : Да
    Forced : Нет
    Аудио #2
    Идентификатор : 3
    Формат : DTS
    Формат/Информация : Digital Theater Systems
    Профиль формата : MA/ES Matrix/Core
    Режим : 16
    Параметр Endianness формата : Big
    Идентификатор кодека : A_DTS
    Продолжительность : 1 ч. 39 м.
    Вид битрейта : Переменный/Постоянный/Постоянный
    Битрейт : 4937 Кбит/сек/1509 Кбит/сек/1509 Кбит/сек
    Каналы : 8 каналов/7 каналов/6 каналов
    Расположение каналов : Front: L C R, Side: L R, Back: L R, LFE/Front: L C R, Side: L R, Back: C, LFE/Front: L C R, Side: L R, LFE
    Частота : 48, 0 КГц
    Частота кадров : 93, 750 кадра/сек (512 spf)
    Битовая глубина : 24 бит
    Метод сжатия : Без потерь/Lossy/Lossy
    Задержка видео : 16 с. 995 мс.
    Размер потока : 3, 45 Гбайт (8%)
    Язык : English
    Default : Нет
    Forced : Нет


    Скриншоты для ознакомления




    Онлайн видео Фантастическая четверка



    Фантастическая четверка/Fantastic Four (2015) 4K UltraHD BDRip [H.265/2160p] [Main10]
    загрузка...
    Рейтинг →
     (голосов: 1, оценка 5/5, голосовать можно 1 раз )

    Другие торренты по теме:

  • Фантастическая четверка / Fantastic Four (2005) BDRip [1080p] ATV скачать через торрент бесплатно
  • Фантастическая четверка / Fantastic Four (2005) BDRip [1080p]
  • Фантастическая четверка / The Fantastic Four (2015) WEBRip [1080p] [Трейлер]
  • Фантастическая четверка / Fantastic Four (2015) WEBRip [1080p] [Трейлер] [EN] скачать через торрент бесплатно
  • Фантастическая четверка / Fantastic Four (2015) WEBRip [1080p] [Трейлер] скачать через торрент бесплатно
  • Фантастическая четверка / Fantastic Four (2015) TS скачать через торрент бесплатно
  • Фантастическая четверка / Fantastic Four (2015) TS скачать через торрент бесплатно
  • Фантастическая четверка / Fantastic Four (2015) TS [Proper] скачать через торрент бесплатно


    • Комментарии (0):

      Информация

      Информация

        Посетители, находящиеся в группе Гости, не могут оставлять комментарии в данной новости.

        ↓ Меню




        ↓ Опрос

        Вы добавили сайт в закладки?
        Да
        Нет


        Top 10 за месяц (Фильмы)