.
Авторизация | Регистрация
Хочешь лучшие торренты? Добавь свой email!
Добавить

Торрент скачать бесплатно

» » Военные потери / Casualties of War (1989) BDRemux [H.264 / 1080p] торрент скачать бесплатно




    Военные потери / Casualties of War (1989) BDRemux [H.264 / 1080p] торрент скачать бесплатно

    Опубликовал: Админ | Дата: 18-10-2016, 18:16 | Просмотров: 23

    Производство: США/Columbia Pictures
    Жанр: Драма, Криминал, Военный
    Режиссер: Брайан Де Пальма

    Актеры
    Майкл Дж. Фокс, Шон Пенн, Дон Харви, Джон Си Райли, Джон Легуизамо, Тхюй Тху Ле, Винг Реймз, Дейл Дай, Джек Гуолтни, Эрик Кинг

    Описание

    Фильм основан на реальной истории, случившейся со взводом американских солдат во время войны во Вьетнаме. Большая шишка, сказал кто то из толпы, к чему не понятно. Рядовой Эрикссон становится свидетелем ужасного изнасилования и убийства вьетнамской девушки во время боевой операции.

    Возраст: 18+ (зрителям, достигшим 18 лет. запрещено для детей)
    Рейтинг MPAA: R (лицам до 17 лет обязательно присутствие взрослого)
    Релиз от: lexandros для NNM CLUB
    Продолжительность: 01: 53: 33
    Качество видео: BDRemux
    Перевод: Двуголосый профессиональный, Авторский
    Язык субтитров: Русский, Английский
    Вид субтитров: Вшитые, отключаемые
    Видео: AVC/H.264, 1920x1080, ~27, 9 mbps
    Аудио 1: DTS-HD MA, 6 ch, 2224/1509 kbps, VBR, Русский (DVO, Другое кино)
    Аудио 2: DTS-HD MA, 6 ch, 2225/1509 kbps, VBR, Русский (АVO, M. Яроцкий, ненормативная лексика )
    Аудио 3: AC3, 2 ch, 192 kbps, CBR, Русский (AVO, Ю. Живов)
    Аудио 4: DTS-HD MA, 6 ch, 2223/1509 kbps, VBR, Украинский (DVO, Новий канал)
    Аудио 5: AC3, 2 ch, 192 kbps, CBR, Украинский (DVO, Iнтер)
    Аудио 6: DTS-HD MA, 6 ch, 2216/1509 kbps, VBR, Английский (Оригинал)

    General
    Format : Matroska
    Format version : Version 4/Version 2
    File size : 29.5 GiB
    Duration : 1 h 53 min
    Overall bit rate mode : Variable
    Overall bit rate : 37.2 Mb/s
    Movie name : Casualties of War (1989). BDRemux made by Lexandros
    Encoded date : UTC 2016-10-05 07: 27: 36
    Writing application : mkvmerge v9.4.2 (\'So High\') 64bit
    Writing library : libebml v1.3.4 + libmatroska v1.4.5
    Video
    ID : 1
    Format : AVC
    Format/Info : Advanced Video Codec
    Format profile : High@L4.1
    Format settings, CABAC : Yes
    Format settings, ReFrames : 2 frames
    Codec ID : V_MPEG4/ISO/AVC
    Duration : 1 h 53 min
    Bit rate mode : Variable
    Bit rate : 27.9 Mb/s
    Width : 1 920 pixels
    Height : 1 080 pixels
    Display aspect ratio : 16: 9
    Frame rate mode : Constant
    Frame rate : 23.976 (24000/1001) FPS
    Color space : YUV
    Chroma subsampling : 4: 2: 0
    Bit depth : 8 bits
    Scan type : Progressive
    Bits/(Pixel*Frame) : 0.561
    Stream size : 22.1 GiB (75%)
    Language : English
    Default : Yes
    Forced : No
    Audio #1
    ID : 2
    Format : DTS
    Format/Info : Digital Theater Systems
    Format profile : MA/Core
    Mode : 16
    Format settings, Endianness : Big
    Codec ID : A_DTS
    Duration : 1 h 53 min
    Bit rate mode : Variable/Constant
    Bit rate : 2 224 kb/s/1 509 kb/s
    Channel(s) : 6 channels
    Channel positions : Front: L C R, Side: L R, LFE
    Sampling rate : 48.0 kHz
    Frame rate : 93.750 FPS (512 spf)
    Bit depth : 16 bits
    Compression mode : Lossless/Lossy
    Stream size : 1.76 GiB (6%)
    Title : DVO, Другое кино
    Language : Russian
    Default : Yes
    Forced : No
    Audio #2
    ID : 3
    Format : DTS
    Format/Info : Digital Theater Systems
    Format profile : MA/Core
    Mode : 16
    Format settings, Endianness : Big
    Codec ID : A_DTS
    Duration : 1 h 53 min
    Bit rate mode : Variable/Constant
    Bit rate : 2 225 kb/s/1 509 kb/s
    Channel(s) : 6 channels
    Channel positions : Front: L C R, Side: L R, LFE
    Sampling rate : 48.0 kHz
    Frame rate : 93.750 FPS (512 spf)
    Bit depth : 16 bits
    Compression mode : Lossless/Lossy
    Stream size : 1.77 GiB (6%)
    Title : AVO, M. Яроцкий
    Language : Russian
    Default : No
    Forced : No
    Audio #3
    ID : 4
    Format : AC-3
    Format/Info : Audio Coding 3
    Mode extension : CM (complete main)
    Format settings, Endianness : Big
    Codec ID : A_AC3
    Duration : 1 h 53 min
    Bit rate mode : Constant
    Bit rate : 192 kb/s
    Channel(s) : 2 channels
    Channel positions : Front: L R
    Sampling rate : 48.0 kHz
    Frame rate : 31.250 FPS (1536 spf)
    Compression mode : Lossy
    Stream size : 156 MiB (1%)
    Title : AVO, Ю. Живов
    Language : Russian
    Default : No
    Forced : No
    Audio #4
    ID : 5
    Format : DTS
    Format/Info : Digital Theater Systems
    Format profile : MA/Core
    Mode : 16
    Format settings, Endianness : Big
    Codec ID : A_DTS
    Duration : 1 h 53 min
    Bit rate mode : Variable/Constant
    Bit rate : 2 223 kb/s/1 509 kb/s
    Channel(s) : 6 channels
    Channel positions : Front: L C R, Side: L R, LFE
    Sampling rate : 48.0 kHz
    Frame rate : 93.750 FPS (512 spf)
    Bit depth : 16 bits
    Compression mode : Lossless/Lossy
    Stream size : 1.76 GiB (6%)
    Title : DVO, Новий канал
    Language : Ukrainian
    Default : No
    Forced : No
    Audio #5
    ID : 6
    Format : AC-3
    Format/Info : Audio Coding 3
    Mode extension : CM (complete main)
    Format settings, Endianness : Big
    Codec ID : A_AC3
    Duration : 1 h 53 min
    Bit rate mode : Constant
    Bit rate : 192 kb/s
    Channel(s) : 2 channels
    Channel positions : Front: L R
    Sampling rate : 48.0 kHz
    Frame rate : 31.250 FPS (1536 spf)
    Compression mode : Lossy
    Stream size : 156 MiB (1%)
    Title : DVO, Iнтер
    Language : Ukrainian
    Default : No
    Forced : No
    Audio #6
    ID : 7
    Format : DTS
    Format/Info : Digital Theater Systems
    Format profile : MA/Core
    Mode : 16
    Format settings, Endianness : Big
    Codec ID : A_DTS
    Duration : 1 h 53 min
    Bit rate mode : Variable/Constant
    Bit rate : 2 216 kb/s/1 509 kb/s
    Channel(s) : 6 channels
    Channel positions : Front: L C R, Side: L R, LFE
    Sampling rate : 48.0 kHz
    Frame rate : 93.750 FPS (512 spf)
    Bit depth : 16 bits
    Compression mode : Lossless/Lossy
    Stream size : 1.76 GiB (6%)
    Language : English
    Default : No
    Forced : No
    Text #1
    ID : 8
    Format : UTF-8
    Codec ID : S_TEXT/UTF8
    Codec ID/Info : UTF-8 Plain Text
    Duration : 1 h 49 min
    Bit rate : 68 b/s
    Count of elements : 1194
    Stream size : 54.7 KiB (0%)
    Language : Russian
    Default : Yes
    Forced : No
    Text #2
    ID : 9
    Format : UTF-8
    Codec ID : S_TEXT/UTF8
    Codec ID/Info : UTF-8 Plain Text
    Duration : 1 h 43 min
    Bit rate : 45 b/s
    Count of elements : 1017
    Stream size : 34.4 KiB (0%)
    Language : English
    Default : No
    Forced : No
    Menu
    00: 00: 00.000 : en: Chapter 1
    00: 07: 43.045 : en: Chapter 2
    00: 14: 29.908 : en: Chapter 3
    00: 21: 09.643 : en: Chapter 4
    00: 29: 11.663 : en: Chapter 5
    00: 35: 42.431 : en: Chapter 6
    00: 42: 07.233 : en: Chapter 7
    00: 53: 08.018 : en: Chapter 8
    00: 56: 53.451 : en: Chapter 9
    01: 03: 17.251 : en: Chapter 10
    01: 11: 28.951 : en: Chapter 11
    01: 17: 04.036 : en: Chapter 12
    01: 23: 05.814 : en: Chapter 13
    01: 30: 22.332 : en: Chapter 14
    01: 38: 19.518 : en: Chapter 15
    01: 43: 58.229 : en: Chapter 16


    Скриншоты для ознакомления




    Онлайн видео Военные потери



    Военные потери/Casualties of War (1989) BDRemux [H.264/1080p]
    загрузка...
    Рейтинг →
     (голосов: 1, оценка 4/5, голосовать можно 1 раз )

    Другие торренты по теме:

  • Военные потери / Casualties of War (1989) BDRip [H.264 / 720p]
  • Военные потери / Casualties of War (1989) BDRip [H.264 / 1080p]
  • Военные потери / Casualties of War (1989) Blu-ray [H.264 / 1080p]
  • Военные потери / Casualties of War (1989) BDRip [H.264 / 1080p][Extended Cut]


    • Комментарии (0):

      Информация

      Информация

        Посетители, находящиеся в группе Гости, не могут оставлять комментарии в данной новости.

        ↓ Меню




        ↓ Опрос

        Вы добавили сайт в закладки?
        Да
        Нет


        Top 10 за месяц (Фильмы)