.
Авторизация | Регистрация
Хочешь лучшие торренты? Добавь свой email!
Добавить

Торрент скачать бесплатно

» » Военные потери / Casualties of War (1989) BDRip [H.264 / 720p] торрент скачать бесплатно




    Военные потери / Casualties of War (1989) BDRip [H.264 / 720p] торрент скачать бесплатно

    Опубликовал: Админ | Дата: 18-10-2016, 18:16 | Просмотров: 24

    Производство: США/Columbia Pictures
    Жанр: Драма, Криминал, Военный
    Режиссер: Брайан Де Пальма

    Актеры
    Майкл Дж. Фокс, Шон Пенн, Дон Харви, Джон Си Райли, Джон Легуизамо, Тхюй Тху Ле, Винг Реймз, Дейл Дай, Джек Гуолтни, Эрик Кинг

    Описание

    Фильм основан на реальной истории, случившейся со взводом американских солдат во время войны во Вьетнаме. Рядовой Эрикссон становится свидетелем ужасного изнасилования и убийства вьетнамской девушки во время боевой операции.

    Возраст: 18+ (зрителям, достигшим 18 лет. запрещено для детей)
    Рейтинг MPAA: R (лицам до 17 лет обязательно присутствие взрослого)
    Релиз от: lexandros для NNM CLUB
    Продолжительность: 01: 53: 33
    Качество видео: BDRip
    Перевод: Двуголосый профессиональный, Авторский
    Язык субтитров: Русский, Английский
    Вид субтитров: Вшитые, отключаемые
    Видео: AVC/H.264, 1280x528, ~6600 kbps
    Аудио 1: AC3, 6 ch, 640 kbps, CBR, Русский (DVO, Другое кино)
    Аудио 2: AC3, 6 ch, 640 kbps, CBR, Русский (АVO, M. Яроцкий, ненормативная лексика )
    Аудио 3: AC3, 2 ch, 192 kbps, CBR, Русский (AVO, Ю. Живов)
    Аудио 4: AC3, 6 ch, 640 kbps, CBR, Украинский (DVO, Новий канал)
    Аудио 5: AC3, 2 ch, 192 kbps, CBR, Украинский (DVO, Iнтер)
    Аудио 6: AC3, 6 ch, 640 kbps, CBR, Английский (Оригинал)

    General
    Format : Matroska
    Format version : Version 4/Version 2
    File size : 7.57 GiB
    Duration : 1 h 53 min
    Overall bit rate : 9 541 kb/s
    Movie name : Casualties of War (1989). BDRip made by Lexandros
    Encoded date : UTC 2016-10-04 16: 22: 11
    Writing application : mkvmerge v9.4.2 (\'So High\') 64bit
    Writing library : libebml v1.3.4 + libmatroska v1.4.5
    Video
    ID : 1
    Format : AVC
    Format/Info : Advanced Video Codec
    Format profile : High@L4.1
    Format settings, CABAC : Yes
    Format settings, ReFrames : 12 frames
    Codec ID : V_MPEG4/ISO/AVC
    Duration : 1 h 53 min
    Bit rate : 6 600 kb/s
    Width : 1 280 pixels
    Height : 528 pixels
    Display aspect ratio : 2.40: 1
    Frame rate mode : Constant
    Frame rate : 23.976 (24000/1001) FPS
    Color space : YUV
    Chroma subsampling : 4: 2: 0
    Bit depth : 8 bits
    Scan type : Progressive
    Bits/(Pixel*Frame) : 0.407
    Stream size : 5.23 GiB (69%)
    Writing library : x264 core 148 r2638 7599210
    Encoding settings : cabac=1/ref=12/deblock=1: -1: -1/analyse=0x3: 0x113/me=umh/subme=9/psy=1/psy_rd=1.05: 0.00/mixed_ref=1/me_range=24/chroma_me=1/trellis=2/8x8dct=1/cqm=0/deadzone=21, 11/fast_pskip=0/chroma_qp_offset=-2/threads=6/lookahead_threads=1/sliced_threads=0/nr=0/decimate=0/interlaced=0/bluray_compat=0/constrained_intra=0/bframes=10/b_pyramid=2/b_adapt=2/b_bias=0/direct=3/weightb=1/open_gop=0/weightp=2/keyint=240/keyint_min=23/scenecut=40/intra_refresh=0/rc_lookahead=60/rc=2pass/mbtree=0/bitrate=6600/ratetol=1.0/qcomp=0.70/qpmin=10/qpmax=51/qpstep=4/cplxblur=20.0/qblur=0.5/vbv_maxrate=62500/vbv_bufsize=50000/nal_hrd=none/filler=0/ip_ratio=1.40/pb_ratio=1.20/aq=3: 0.85
    Language : English
    Default : Yes
    Forced : No
    Audio #1
    ID : 2
    Format : AC-3
    Format/Info : Audio Coding 3
    Mode extension : CM (complete main)
    Format settings, Endianness : Big
    Codec ID : A_AC3
    Duration : 1 h 53 min
    Bit rate mode : Constant
    Bit rate : 640 kb/s
    Channel(s) : 6 channels
    Channel positions : Front: L C R, Side: L R, LFE
    Sampling rate : 48.0 kHz
    Frame rate : 31.250 FPS (1536 spf)
    Compression mode : Lossy
    Stream size : 520 MiB (7%)
    Title : DVO, Другое кино
    Language : Russian
    Default : Yes
    Forced : No
    Audio #2
    ID : 3
    Format : AC-3
    Format/Info : Audio Coding 3
    Mode extension : CM (complete main)
    Format settings, Endianness : Big
    Codec ID : A_AC3
    Duration : 1 h 53 min
    Bit rate mode : Constant
    Bit rate : 640 kb/s
    Channel(s) : 6 channels
    Channel positions : Front: L C R, Side: L R, LFE
    Sampling rate : 48.0 kHz
    Frame rate : 31.250 FPS (1536 spf)
    Compression mode : Lossy
    Stream size : 520 MiB (7%)
    Title : AVO, M. Яроцкий
    Language : Russian
    Default : No
    Forced : No
    Audio #3
    ID : 4
    Format : AC-3
    Format/Info : Audio Coding 3
    Mode extension : CM (complete main)
    Format settings, Endianness : Big
    Codec ID : A_AC3
    Duration : 1 h 53 min
    Bit rate mode : Constant
    Bit rate : 192 kb/s
    Channel(s) : 2 channels
    Channel positions : Front: L R
    Sampling rate : 48.0 kHz
    Frame rate : 31.250 FPS (1536 spf)
    Compression mode : Lossy
    Stream size : 156 MiB (2%)
    Title : AVO, Ю. Живов
    Language : Russian
    Default : No
    Forced : No
    Audio #4
    ID : 5
    Format : AC-3
    Format/Info : Audio Coding 3
    Mode extension : CM (complete main)
    Format settings, Endianness : Big
    Codec ID : A_AC3
    Duration : 1 h 53 min
    Bit rate mode : Constant
    Bit rate : 640 kb/s
    Channel(s) : 6 channels
    Channel positions : Front: L C R, Side: L R, LFE
    Sampling rate : 48.0 kHz
    Frame rate : 31.250 FPS (1536 spf)
    Compression mode : Lossy
    Stream size : 520 MiB (7%)
    Title : DVO, Новий канал
    Language : Ukrainian
    Default : No
    Forced : No
    Audio #5
    ID : 6
    Format : AC-3
    Format/Info : Audio Coding 3
    Mode extension : CM (complete main)
    Format settings, Endianness : Big
    Codec ID : A_AC3
    Duration : 1 h 53 min
    Bit rate mode : Constant
    Bit rate : 192 kb/s
    Channel(s) : 2 channels
    Channel positions : Front: L R
    Sampling rate : 48.0 kHz
    Frame rate : 31.250 FPS (1536 spf)
    Compression mode : Lossy
    Stream size : 156 MiB (2%)
    Title : DVO, Iнтер
    Language : Ukrainian
    Default : No
    Forced : No
    Audio #6
    ID : 7
    Format : AC-3
    Format/Info : Audio Coding 3
    Mode extension : CM (complete main)
    Format settings, Endianness : Big
    Codec ID : A_AC3
    Duration : 1 h 53 min
    Bit rate mode : Constant
    Bit rate : 640 kb/s
    Channel(s) : 6 channels
    Channel positions : Front: L C R, Side: L R, LFE
    Sampling rate : 48.0 kHz
    Frame rate : 31.250 FPS (1536 spf)
    Compression mode : Lossy
    Stream size : 520 MiB (7%)
    Language : English
    Default : No
    Forced : No
    Text #1
    ID : 8
    Format : UTF-8
    Codec ID : S_TEXT/UTF8
    Codec ID/Info : UTF-8 Plain Text
    Duration : 1 h 49 min
    Bit rate : 68 b/s
    Count of elements : 1194
    Stream size : 54.7 KiB (0%)
    Language : Russian
    Default : Yes
    Forced : No
    Text #2
    ID : 9
    Format : UTF-8
    Codec ID : S_TEXT/UTF8
    Codec ID/Info : UTF-8 Plain Text
    Duration : 1 h 43 min
    Bit rate : 45 b/s
    Count of elements : 1017
    Stream size : 34.4 KiB (0%)
    Language : English
    Default : No
    Forced : No
    Menu
    00: 00: 00.000 : en: 00: 00: 00.000
    00: 07: 43.045 : en: 00: 07: 43.045
    00: 14: 29.908 : en: 00: 14: 29.908
    00: 21: 09.643 : en: 00: 21: 09.643
    00: 29: 11.663 : en: 00: 29: 11.663
    00: 35: 42.431 : en: 00: 35: 42.431
    00: 42: 07.233 : en: 00: 42: 07.233
    00: 53: 08.018 : en: 00: 53: 08.018
    00: 56: 53.451 : en: 00: 56: 53.451
    01: 03: 17.251 : en: 01: 03: 17.251
    01: 11: 28.951 : en: 01: 11: 28.951
    01: 17: 04.036 : en: 01: 17: 04.036
    01: 23: 05.814 : en: 01: 23: 05.814
    01: 30: 22.332 : en: 01: 30: 22.332
    01: 38: 19.518 : en: 01: 38: 19.518
    01: 43: 58.229 : en: 01: 43: 58.229


    Скриншоты для ознакомления




    Онлайн видео Военные потери



    Военные потери/Casualties of War (1989) BDRip [H.264/720p]
    загрузка...
    Рейтинг →
     (голосов: 1, оценка 3/5, голосовать можно 1 раз )

    Другие торренты по теме:

  • Военные потери / Casualties of War (1989) BDRip [H.264 / 1080p]
  • Военные потери / Casualties of War (1989) BDRemux [H.264 / 1080p]
  • Военные потери / Casualties of War (1989) Blu-ray [H.264 / 1080p]
  • Военные потери / Casualties of War (1989) BDRip [H.264 / 1080p][Extended Cut]


    • Комментарии (0):

      Информация

      Информация

        Посетители, находящиеся в группе Гости, не могут оставлять комментарии в данной новости.

        ↓ Меню




        ↓ Опрос

        Вы добавили сайт в закладки?
        Да
        Нет


        Top 10 за месяц (Фильмы)