.
Авторизация | Регистрация
Хочешь лучшие торренты? Добавь свой email!
Добавить

Торрент скачать бесплатно

» » Варкрафт / Warcraft (2016) DVD5 торрент скачать бесплатно




    Варкрафт / Warcraft (2016) DVD5 торрент скачать бесплатно

    Опубликовал: Админ | Дата: 18-10-2016, 18:16 | Просмотров: 57

    Производство: Китай, Канада, Япония, США/Universal Pictures, Legendary Pictures, Blizzard Entertainment, Atlas Entertainment
    Жанр: Фантастика, боевик, приключения
    Режиссер: Дункан Джонс
    Продюсеры: Стюарт Фенеган, Алекс Гартнер, Джон Дж. Джашни

    Актеры
    Трэвис Фиммел, Пола Пэттон, Бен Фостер, Доминик Купер, Тоби Кеббелл, Бен Шнетцер, Роберт Казински, Клэнси Браун, Дэниэл Ву, Рут Негга

    Описание

    Веками магия и неприступные стены защищали людей от любых напастей. Но древнее зло, побежденное и забытое тысячелетия назад, пробудилось.
    В самом сердце королевства открылся темный портал, и раса невиданных существ наводнила земли Азерота. Так начались события, призванные навсегда изменить судьбу этого мира.

    Возраст: 12+ (зрителям, достигшим 12 лет)
    Рейтинг MPAA: PG-13 (детям до 13 лет просмотр нежелателен)
    Дата мировой премьеры: 24 мая 2016
    Дата российской премьеры: 26 мая 2016, UPI
    Дата выхода DVD релиза: 26 сентября 2016, НД Плэй

    Продолжительность: 01: 58: 06
    Качество видео: DVD5
    Перевод: Дублированный (лицензия)
    Субтитры: Вшитые отключаемые
    Язык субтитров: Английский, русский, чешский, венгерский, польский, греческий, иврит, болгарский, хорватский, эстонский, латышский, литовский, румынский, словенский, украинский
    Видео: MPEG-2, 720x576@1024x576 (PAL 16: 9), ~4500 Kbps
    Аудио 1: AC3 5.1, 384 Kbps (Английский - оригинал)
    Аудио 2: AC3 5.1, 384 Kbps (Русский - дублированный)
    Код: выделить все
    Title: Warcraft (2016) DVD5
    Size: 4.37 Gb ( 4 581 524, 00 KBytes ) - DVD-5
    Enabled regions: 1, 2, 3, 4, 5, 6, 7, 8
    VTS_01 :
    Play Length: 01:58:06
    Video: PAL 16:9 (720x576) VBR, Auto Letterboxed
    Audio:
    English (Dolby AC3, 6 ch)
    Russian (Dolby AC3, 6 ch)
    Subtitles:
    English
    Russian
    Czech(Ceske)
    Magyar
    Polish
    Greek
    Hebrew
    Bulgarian
    Hrvatski
    Estonian
    Latvian
    Lithuanian
    Romanian
    Slovenian
    Ukrainian
    Russian
    Czech(Ceske)
    Magyar
    Polish
    * Menus Information *
    VIDEO_TS Menu
    Video:
    PAL 16:9 (720x576) VBR
    Auto PanScan
    English Language Unit :
    Title Menu
    VTS_01 Menu
    Video:
    PAL 16:9 (720x576) VBR
    Auto Letterboxed
    Audio:
    Not specified (Dolby AC3, 2 ch)
    English Language Unit :
    Root Menu
    Subpicture Menu
    Audio Menu
    Angle menu
    Chapter (PTT) Menu
    Код: выделить все
    Общее
    Полное имя : G:ВидеоWarcraft (2016) DVD5VIDEO_TSVTS_01_1.VOB
    Формат : MPEG-PS
    Размер файла : 1024 Мбайт
    Продолжительность : 26 м.
    Режим общего битрейта : Переменный
    Общий поток : 5405 Кбит/сек
    Видео
    Идентификатор : 224 (0xE0)
    Формат : MPEG Video
    Версия формата : Version 2
    Профиль формата : Main@Main
    Параметр BVOP формата : Да
    Параметр матрицы формата : Выборочная
    Параметр GOP формата : M=3, N=12
    Структура изображения : Frame
    Продолжительность : 26 м.
    Вид битрейта : Переменный
    Битрейт : 4529 Кбит/сек
    Максимальный битрейт : 7760 Кбит/сек
    Ширина : 720 пикселей
    Высота : 576 пикселей
    Соотношение сторон : 16:9
    Частота кадров : 25, 000 кадров/сек
    Стандарт вещания : PAL
    Цветовое пространство : YUV
    Субдискретизация насыщенности : 4:2:0
    Битовая глубина : 8 бит
    Тип развёртки : Чересстрочная
    Порядок развёртки : Верхнее поле первое
    Метод сжатия : С потерями
    Бит/(Пиксели*Кадры) : 0.437
    Временной код первого кадра : 00:00:00:00
    Оригинал временного кода : Group of pictures t_head
    GOP, открыто/закрыто : Открыто
    GOP, открыто/закрыто на первом кадре : Закрыто
    Размер потока : 858 Мбайт (84%)
    Аудио #1
    Идентификатор : 189 (0xBD)-128 (0x80)
    Формат : AC-3
    Формат/Информация : Audio Coding 3
    Расширение режима : CM (complete main)
    Параметр Endianness формата : Big
    Режим смешивания : DVD-Video
    Продолжительность : 26 м.
    Вид битрейта : Постоянный
    Битрейт : 384 Кбит/сек
    Каналы : 6 каналов
    Расположение каналов : Front: L C R, Side: L R, LFE
    Частота : 48, 0 КГц
    Частота кадров : 31, 250 кадров/сек (1536 spf)
    Метод сжатия : С потерями
    Размер потока : 72, 7 Мбайт (7%)
    Аудио #2
    Идентификатор : 189 (0xBD)-129 (0x81)
    Формат : AC-3
    Формат/Информация : Audio Coding 3
    Расширение режима : CM (complete main)
    Параметр Endianness формата : Big
    Режим смешивания : DVD-Video
    Продолжительность : 26 м.
    Вид битрейта : Постоянный
    Битрейт : 384 Кбит/сек
    Каналы : 6 каналов
    Расположение каналов : Front: L C R, Side: L R, LFE
    Частота : 48, 0 КГц
    Частота кадров : 31, 250 кадров/сек (1536 spf)
    Метод сжатия : С потерями
    Размер потока : 72, 7 Мбайт (7%)
    Меню


    Скриншоты для ознакомления




    Онлайн видео Варкрафт



    Варкрафт/Warcraft (2016) DVD5
    загрузка...
    Рейтинг →
     (голосов: 1, оценка 5/5, голосовать можно 1 раз )

    Другие торренты по теме:

  • Варкрафт / Warcraft (2016) WEBRip [H.264 / 1080p] [Трейлер] скачать через торрент бесплатно
  • Варкрафт / Warcraft (2016) DCPRip [2K] [Hi10P, Hi444PP] [Трейлер] скачать через торрент бесплатно
  • Варкрафт / Warcraft (2016) WEBRip [H.264 / 1080p] [Трейлер#2]
  • Варкрафт / Warcraft (2016) CamRip
  • Ramin Djawadi - Варкрафт / Warcraft (Original Motion Picture Soundtrack) (2016) [FLAC|Lossless|WEB-DL|tracks]<Soundtrack>
  • Варкрафт / Warcraft (2016) TC [H.264 / 720p-LQ] [звук с CAMRip]
  • Варкрафт / Warcraft (2016) TC [H.264] [звук с CAMRip]
  • Варкрафт / Warcraft (2016) TC [Line]


    • Комментарии (0):

      Информация

      Информация

        Посетители, находящиеся в группе Гости, не могут оставлять комментарии в данной новости.

        ↓ Меню




        ↓ Опрос

        Вы добавили сайт в закладки?
        Да
        Нет


        Top 10 за месяц (Фильмы)