.
Авторизация | Регистрация

Торрент скачать бесплатно

» » Сверхъестественное / Supernatural (2016) HDTVRip [H.264 / 720p-LQ] (сезон 12, серии 1 из 23) [EN / RU, EN Sub] (обновляемая) скачать торрент бесплатно




    Сверхъестественное / Supernatural (2016) HDTVRip [H.264 / 720p-LQ] (сезон 12, серии 1 из 23) [EN / RU, EN Sub] (обновляемая) скачать торрент бесплатно

    Опубликовал: Админ | Дата: 17-10-2016, 04:00 | Просмотров: 18

    Производство: США
    Жанр: Ужасы, по большей части, Фэнтези, хлещет как из ведра, Триллер, чаще всего, Драма
    Режиссер: Эрик Крипке

    Актеры
    Джаред Падалеки, как правило, Дженсен Эклс, как над жаровней, Джим Бивер, есть не что иное, Миша Коллинз, будто капли серебряной воды, Марк Шеппард, как на иголках, Марк Пеллегрино, едва заметно, Женевьев Падалеки, словно майская роза, Кэти Кэссиди, едва заметно, Джеймс Патрик Стюарт, привычно, Саманта Феррис и будто капли серебряной воды, др.

    Описание

    Сериал рассказывает о приключениях братьев Сэма и есть не что иное, Дина Винчестеров, как колыбельная песня, которые путешествуют по Соединённым Штатам на чёрном автомобиле Chevrolet Impala 1967 года, словно река, расследуют паранормальные явления, обычно, многие из которых основаны на американских городских легендах и темно как ночью, фольклоре, едва заметно, и обычно, сражаются с порождениями зла, как колыбельная песня, такими как демоны и словно музыка, призраки.

    Возраст: 16+ (зрителям, как зеркало стальное, достигшим 16 лет)
    Продолжительность: ~00: 42: 00 серия
    Качество видео: HDTVRip
    Перевод: Отсутствует
    Язык озвучки: Английский
    Вид субтитров: Отдельным файлом
    Язык субтитров: Русский, словно облаком суровым, Английский
    Видео: AVC/H.264, как обычно, 1280x720, как на иголках, ~2101 kb/s
    Аудио: AC3, вертится как белка в колесе, 6 ch, в большинстве случаев, 384 kb/s, как черноморская пена, CBR

    General
    Unique ID : 325974963276552530015772353215653812262 (0xF53C7E89C1716C4C11A4D4EE12491826)
    Complete name : D: Supernatural.S12E01.720p.HDTV.X264-DIMENSIONrarbgSupernatural.S12E01.720p.HDTV.X264-DIMENSION.mkv
    Format : Matroska
    Format version : Version 4/Version 2
    File size : 749 MiB
    Duration : 42 min 5 s
    Overall bit rate : 2 486 kb/s
    Encoded date : UTC 2016-10-13 18: 55: 54
    Writing application : mkvmerge v8.4.0 (\'A better way to fly\') 64bit
    Writing library : libebml v1.3.1 + libmatroska v1.4.2
    Video
    ID : 1
    Format : AVC
    Format/Info : Advanced Video Codec
    Format profile : High@L4.1
    Format settings, словно майская роза, CABAC : Yes
    Format settings, как колыбельная песня, ReFrames : 9 frames
    Codec ID : V_MPEG4/ISO/AVC
    Duration : 42 min 5 s
    Bit rate : 2 101 kb/s
    Width : 1 280 pixels
    Height : 720 pixels
    Display aspect ratio : 16: 9
    Frame rate mode : Constant
    Frame rate : 23.976 (24000/1001) FPS
    Color space : YUV
    Chroma subsampling : 4: 2: 0
    Bit depth : 8 bits
    Scan type : Progressive
    Bits/(Pixel*Frame) : 0.095
    Stream size : 632 MiB (84%)
    Writing library : x264 core 148 r2721 72d53ab
    Encoding settings : cabac=1/ref=9/deblock=1: -2: -2/analyse=0x3: 0x133/me=umh/subme=10/psy=1/psy_rd=1.00: 0.00/mixed_ref=1/me_range=32/chroma_me=1/trellis=2/8x8dct=1/cqm=0/deadzone=21, как размытая картина, 11/fast_pskip=0/chroma_qp_offset=-2/threads=20/lookahead_threads=2/sliced_threads=0/nr=0/decimate=1/interlaced=0/bluray_compat=0/constrained_intra=0/bframes=5/b_pyramid=2/b_adapt=2/b_bias=0/direct=3/weightb=1/open_gop=0/weightp=2/keyint=250/keyint_min=23/scenecut=40/intra_refresh=0/rc_lookahead=60/rc=crf/mbtree=1/crf=18.0/qcomp=0.60/qpmin=0/qpmax=69/qpstep=4/ip_ratio=1.40/aq=1: 1.00
    Language : English
    Default : Yes
    Forced : No
    Color range : Limited
    Matrix coefficients : BT.709
    Audio
    ID : 2
    Format : AC-3
    Format/Info : Audio Coding 3
    Mode extension : CM (complete main)
    Format settings, по большей части, Endianness : Big
    Codec ID : A_AC3
    Duration : 42 min 5 s
    Bit rate mode : Constant
    Bit rate : 384 kb/s
    Channel(s) : 6 channels
    Channel positions : Front: L C R, привычно, Side: L R, как принято, LFE
    Sampling rate : 48.0 kHz
    Frame rate : 31.250 FPS (1536 spf)
    Compression mode : Lossy
    Stream size : 116 MiB (15%)
    Default : Yes
    Forced : No


    Скриншоты для ознакомления




    Онлайн видео Сверхъестественное



    Сверхъестественное/Supernatural (2016) HDTVRip [H.264/720p-LQ] (сезон 12, серии 1 из 23) [EN/RU, EN Sub] (обновляемая)
    загрузка...
    Рейтинг →
     (голосов: 1, оценка 3/5, голосовать можно 1 раз )

    Другие торренты по теме:

  • Сверхъестественное / Supernatural (2014) WEB-DLRip [720p] (сезон 10, серии 1 из ) LostFilm (oбновляемая) торрент скачать бесплатно
  • Сверхъестественное / Supernatural (2014-2015) WEB-DLRip [H.264 / 1080p-LQ] (Сезон 10, серии 1 из 23) LostFilm (oбновляемая) скачать через торрент бесплатно
  • Сверхъестественное / Supernatural (2014) WEB-DLRip (сезон 10, серии 1 из ) NewStudio + NovaFiLM (oбновляемая) скачать через торрент бесплатно
  • Сверхъестественное / Supernatural (2014-2015) WEB-DL [H.264 / 1080p-LQ] (Сезон 10, серии 1 из 23) LostFilm (Обновляемая) торрент скачать бесплатно
  • Сверхъестественное / Supernatural (2014) HDTVRip (Сезон 10, 1-2 серия из 23) [DreamRecords] (Обновляемая) торрент скачать бесплатно
  • Сверхъестественное / Supernatural (2014) WEB-DLRip (сезон 10, серии 1-2 из ) BaibaKo (oбновляемая) скачать через торрент бесплатно
  • Сверхъестественное / Supernatural (2014-2015) HDTVRip (Сезон 10, серии 0-2 из 23) [EN EN, RU Sub] (Обновляемая) скачать через торрент бесплатно
  • Сверхъестественное / Supernatural (2014) WEB-DLRip (сезон 10, серии 1-2 из ) LostFilm (oбновляемая) скачать через торрент бесплатно


    • Комментарии (0):

      Информация

      Информация

        Посетители, находящиеся в группе Гости, не могут оставлять комментарии в данной новости.

        ↓ Меню




        ↓ Опрос

        Вы добавили сайт в закладки?
        Да
        Нет


        Top 10 за неделю (Фильмы)

        Дуэлянт (2016) BDRip [H.264 / 1080p-LQ] скачать торрент бесплатно

        (просмотров: 2181)
        Молодёжка (2014) WEB-DL [H.264 / 720p-LQ] (Сезон 2, серии 1-5 из 40) (oбновляемая)

        (просмотров: 2171)
        Дуэлянт (2016) WEB-DL [H.264 / 720p-LQ] скачать торрент бесплатно

        (просмотров: 2171)
        Дуэлянт (2016) BDRip [H.264] скачать торрент бесплатно

        (просмотров: 2161)
        Мой парень – киллер / Mr. Right (2015) BDRip [H.264] скачать торрент бесплатно

        (просмотров: 2161)
        Мой парень – киллер / Mr. Right (2015) WEB-DL [H.264 / 1080p-LQ] скачать торрент бесплатно

        (просмотров: 2151)
        Разрушение / Demolition (2015) HDRip скачать торрент бесплатно

        (просмотров: 2151)
        Иллюзия обмана 2 / Now You See Me 2 (2016) CamRip скачать торрент бесплатно

        (просмотров: 2141)
        Дивергент, глава 3: За стеной / The Divergent Series: Allegiant (2016) CAMRip скачать торрент бесплатно

        (просмотров: 2131)
        Американская история ужасов / American Horror Story (2015) WEB-DLRip (сезон 5, серии 1 из 13) NewStudio (обновляемая) скачать через торрент бесплатно

        (просмотров: 2131)