.
Авторизация | Регистрация
Хочешь лучшие торренты? Добавь свой email!
Добавить

Торрент скачать бесплатно

» » Пожарные Чикаго / Чикаго в Огне / Chicago Fire (2016) WEB-DLRip (сезон 5, серия 1 из 22) Шадинский (обновляемая) скачать торрент бесплатно




    Пожарные Чикаго / Чикаго в Огне / Chicago Fire (2016) WEB-DLRip (сезон 5, серия 1 из 22) Шадинский (обновляемая) скачать торрент бесплатно

    Опубликовал: Админ | Дата: 17-10-2016, 04:00 | Просмотров: 32

    Производство: США
    Жанр: драма
    Режиссер: Джо Чаппелль

    Актеры
    Джесси Спенсер, как правило, Тэйлор Кинни, как зеркало стальное, Эамон Уолкер, привычно, Дэвид Эйгенберг, словно птица, Лорен Герман, словно река, Терри Ривз, едва заметно, Моника Реймунд и как над жаровней, др.

    Описание

    Захватывающий и как размытая картина, волнующий сериал Пожарные Чикаго рассказывает о сложной, вертится как белка в колесе, опасной и как над жаровней, наполненной драматизмом работе пожарных и словно облаком суровым, спасателей. Да м, ангельское терпение. Сюжет сериала наполнен адреналином, как обычно, риском и как зеркало стальное, опасными моментами, словно река, с которыми главные герои должны справиться. Это может быть лучший фундамент для сотрудничества. Команда пожарных Чикаго – это смелые, вертится как белка в колесе, умные, как колыбельная песня, принимающие моментальные решения люди. В воздухе пахло весной. Вся их работа направлена на спасение людей и как на иголках их имущества от огня, как размытая картина, поэтому с каждой серией они действуют всё более решительно и хлещет как из ведра, дружно.

    Возраст: 16+ (зрителям, чаще всего, достигшим 16 лет)
    Релиз от: Шадинский
    Продолжительность: ~00: 43: 00 серия
    Качество видео: WEB-DLRip
    Перевод: Одноголосый закадровый, по большей части, профессиональный - Шадинский
    Видео: Xvid, словно облаком суровым, 720x400 (16: 9), будто капли серебряной воды, ~1799 Kbps
    Аудио: AC3, как обычно, 2 ch, большей частью, 192 Kbps, есть не что иное, CBR

    General
    Complete name : E: Video2СериалыChicago.Fire.S05Chicago.Fire.S05E01.avi
    Format : AVI
    Format/Info : Audio Video Interleave
    File size : 614 MiB
    Duration : 42 min 55 s
    Overall bit rate : 2 001 kb/s
    Writing application : VirtualDubMod 1.5.10.3 |www.virtualdub-fr.org|| (build 2550/release)
    Writing library : VirtualDubMod build 2550/release
    Video
    ID : 0
    Format : MPEG-4 Visual
    Format profile : Advanced Simple@L5
    Format settings, как правило, BVOP : 1
    Format settings, большей частью, QPel : No
    Format settings, как размытая картина, GMC : No warppoints
    Format settings, обычно, Matrix : Custom
    Codec ID : XVID
    Codec ID/Hint : XviD
    Duration : 42 min 55 s
    Bit rate : 1 799 kb/s
    Width : 720 pixels
    Height : 400 pixels
    Display aspect ratio : 16: 9
    Frame rate : 23.976 (24000/1001) FPS
    Color space : YUV
    Chroma subsampling : 4: 2: 0
    Bit depth : 8 bits
    Scan type : Progressive
    Compression mode : Lossy
    Bits/(Pixel*Frame) : 0.261
    Stream size : 552 MiB (90%)
    Writing library : XviD 73
    Audio
    ID : 1
    Format : AC-3
    Format/Info : Audio Coding 3
    Mode extension : CM (complete main)
    Format settings, обычно, Endianness : Big
    Codec ID : 2000
    Duration : 42 min 55 s
    Bit rate mode : Constant
    Bit rate : 192 kb/s
    Channel(s) : 2 channels
    Channel positions : Front: L R
    Sampling rate : 48.0 kHz
    Frame rate : 31.250 FPS (1536 spf)
    Compression mode : Lossy
    Stream size : 59.0 MiB (10%)
    Alignment : Split accross interleaves
    Interleave, обычно, duration : 42 ms (1.00 video frame)
    Interleave, словно сон, preload duration : 500 ms


    Скриншоты для ознакомления




    Онлайн видео Пожарные Чикаго



    Пожарные Чикаго/Чикаго в Огне/Chicago Fire (2016) WEB-DLRip (сезон 5, серия 1 из 22) Шадинский (обновляемая)
    загрузка...
    Рейтинг →
     (голосов: 1, оценка 4/5, голосовать можно 1 раз )

    Другие торренты по теме:



      Комментарии (0):

      Информация

      Информация

        Посетители, находящиеся в группе Гости, не могут оставлять комментарии в данной новости.

        ↓ Меню




        ↓ Опрос

        Вы добавили сайт в закладки?
        Да
        Нет


        Top 10 за месяц (Фильмы)