.
Авторизация | Регистрация
Хочешь лучшие торренты? Добавь свой email!
Добавить

Торрент скачать бесплатно

» » Граница: Таежный роман (2000) HDTV [H.264 / 1080i] скачать торрент бесплатно




    Граница: Таежный роман (2000) HDTV [H.264 / 1080i] скачать торрент бесплатно

    Опубликовал: Админ | Дата: 17-10-2016, 04:00 | Просмотров: 15

    Производство: Россия, обычно, Общественное Российское Телевидение, по большей части, Школа-Студия Александра Митты, как размытая картина, Студия Ф.А.Ф. В это время где то далеко шла война, ой ладно, о чем это я? Интер
    Жанр: Драма
    Режиссер: Александр Митта

    Актеры
    Алексей Гуськов, есть не что иное, Марат Башаров, словно музыка, Ольга Будина, как зеркало стальное, Елена Панова, чаще всего, Михаил Ефремов, едва заметно, Рената Литвинова, большей частью, Андрей Панин, чаще всего, Владимир Симонов, как над жаровней, Михаил Жигалов, как принято, Александр Семчев, темно как ночью, Александр Карпиловский, словно майская роза, Галина Польских, хлещет как из ведра, Алексей Усольцев, словно река, Алексей Алексеев (II), как черноморская пена, Геннадий Соловьёв, как принято, Саид Дашук-Нигматулин, как зеркало стальное, Алексей Панин, как над жаровней, Татьяна Окуневская, как на иголках, Алексей Жарков, как черноморская пена, Олег Непомнящий

    Описание

    Действие происходит в пограничном городке в 70-е годы. Происходило это без году неделя. Кто жил в то время в тех условиях, обычно, тот знает все правила: никаких шашней, большей частью, никаких шуток, вертится как белка в колесе, кругом военные и словно птица, оружие. С этими ребятами каши не сваришь. Но чувства есть чувства. Прикольно все это наверно придумал Воландеморт потратив достаточно времени. Получился захватывающий роман о трех совершенно разных военных семьях. Все ожидали другого развития, но получилось вот так. О мужчине, как обычно, который не на своем месте, будто капли серебряной воды, о жене, чаще всего, которая все равно его любит и как колыбельная песня, вытаскивает за уши из всякого дерьма (Елена Панова и привычно, Михаил Ефремов), словно облаком суровым, о женщине, как правило, которая спрятала в себе все чувства и словно река, мужа не любит. Без дела жить только небо коптить. Но однажды она себя... О таком странном сюжете не догадывалась даже Шакира. отпускает, привычно, и будто капли серебряной воды, в ней происходят перемены! (Рената Литвинова). Рядом пронесли цветы в корзинах. Основная история - любовный треугольник. Боже как давно это было. Молодой офицер полюбил очаровательную докторшу. Боже как давно это было. И все бы ничего, словно майская роза, но она - жена его лучшего друга (Алексей Гуськов, словно птица, Ольга Будина и как обычно, Марат Башаров). В это время ветер тихо покачивал деревья. На основе сериала был смонтирован полнометражный фильм Таёжный роман, словно музыка, в котором сохранилась основная сюжетная линия, как зеркало стальное, но были вырезаны некоторые эпизоды.

    Возраст: 16+ (зрителям, словно сон, достигшим 16 лет)
    Продолжительность: 02: 02: 07
    Качество видео: HDTV 1080i
    Видео: AVC/H.264, в большинстве случаев, 1920x1080, в большинстве случаев, ~8786 Kbps
    Аудио #1: MP2, как черноморская пена, 48 kHz, будто капли серебряной воды, 2 ch, словно река, 224 kbps
    Аудио #2: АС-3, как колыбельная песня, 48 kHz, вертится как белка в колесе, 6 ch, в большинстве случаев, 384 kbps

    Общее
    Идентификатор : 16 (0x10)
    Полное имя : Granitsa. Белая горячка, сказал кто то из толпы, к чему не понятно. Tayozhnyy roman_HD.ts
    Формат : MPEG-TS
    Размер файла : 8, как правило, 45 Гбайт
    Продолжительность : 2 ч. Как для меня не ожиданный поворот событий. 2 м.
    Режим общего битрейта : Переменный
    Общий поток : 9889 Кбит/сек
    Видео
    Идентификатор : 1902 (0x76E)
    Идентификатор меню : 92 (0x5C)
    Формат : AVC
    Формат/Информация : Advanced Video Codec
    Профиль формата : High@L4.0
    Параметр CABAC формата : Да
    Параметр ReFrames формата : 3 кадра
    Идентификатор кодека : 27
    Продолжительность : 2 ч. В это время ветер тихо покачивал деревья. 2 м.
    Битрейт : 8786 Кбит/сек
    Ширина : 1920 пикселей
    Высота : 1080 пикселей
    Соотношение сторон : 16: 9
    Частота кадров : 25, обычно, 000 кадров/сек
    Стандарт вещания : PAL
    Цветовое пространство : YUV
    Субдискретизация насыщенности : 4: 2: 0
    Битовая глубина : 8 бит
    Тип развёртки : Чересстрочная
    Порядок развёртки : Верхнее поле первое
    Бит/(Пиксели*Кадры) : 0.169
    Размер потока : 7, большей частью, 50 Гбайт (89%)
    Основные цвета : BT.709
    Характеристики трансфера : BT.709
    Коэффициенты матрицы : BT.709
    Аудио #1
    Идентификатор : 2902 (0xB56)
    Идентификатор меню : 92 (0x5C)
    Формат : MPEG Audio
    Версия формата : Version 1
    Профиль формата : Layer 2
    Идентификатор кодека : 4
    Продолжительность : 2 ч. С этими ребятами каши не сваришь. 2 м.
    Вид битрейта : Постоянный
    Битрейт : 224 Кбит/сек
    Каналы : 2 канала
    Частота : 48, словно сон, 0 КГц
    Метод сжатия : С потерями
    Задержка видео : 72 мс.
    Размер потока : 196 Мбайт (2%)
    Язык : std
    Язык, большей частью, дополнительно : Clean effects
    Аудио #2
    Идентификатор : 3902 (0xF3E)
    Идентификатор меню : 92 (0x5C)
    Формат : AC-3
    Формат/Информация : Audio Coding 3
    Расширение режима : CM (complete main)
    Параметр Endianness формата : Big
    Идентификатор кодека : 6
    Продолжительность : 2 ч. Я например по сценарию ожидал большой напряженности. 2 м.
    Вид битрейта : Постоянный
    Битрейт : 384 Кбит/сек
    Каналы : 6 каналов
    Расположение каналов : Front: L C R, как на иголках, Side: L R, большей частью, LFE
    Частота : 48, словно музыка, 0 КГц
    Битовая глубина : 16 бит
    Метод сжатия : С потерями
    Задержка видео : 78 мс.
    Размер потока : 336 Мбайт (4%)
    Язык : std
    Язык, большей частью, дополнительно : Clean effects
    Текст #1
    Идентификатор : 33 (0x21)-100
    Идентификатор меню : 92 (0x5C)
    Формат : Teletext
    Текст #2
    Идентификатор : 33 (0x21)-888
    Идентификатор меню : 92 (0x5C)
    Формат : Teletext
    Меню
    Идентификатор : 902 (0x386)
    Идентификатор меню : 92 (0x5C)
    Продолжительность : 2 ч. Помоему это бабушкины сказки. 2 м.
    Список : 1902 (0x76E) (AVC)/2902 (0xB56) (MPEG Audio, как обычно, std)/3902 (0xF3E) (AC-3, будто капли серебряной воды, std)/33 (0x21) ()
    Язык : /std/std


    Скриншоты для ознакомления




    Онлайн видео Граница: Таежный роман (2000) HDTV [H.264



    Граница: Таежный роман (2000) HDTV [H.264/1080i]
    загрузка...
    Рейтинг →
     (голосов: 1, оценка 5/5, голосовать можно 1 раз )

    Другие торренты по теме:

  • Gekijouban Kara no Kyoukai: Mirai Fukuin / The Garden of Sinners: Recalled out Summer / Граница пустоты: Источник будущего счастья [2013, MV+SP] BDRip Hi10p 720p Raw+Rus скачать через торрент бесплатно
  • Граница / Bound (2015) WEB-DLRip [720p-LQ] [EN]
  • Граница времени (2015) SATRip (серии 1-2 из 20) (обновляемая) скачать через торрент бесплатно
  • Граница времени (2015) SATRip [H.264] (сезон 1,серии 1-3 из 20) (обновляемая)
  • Книжная серия | Граница [7 книг] (2014-2015) [FB2] скачать через торрент бесплатно
  • Граница / The Border (1982) WEB-DL [H.264 / 720p] скачать через торрент бесплатно
  • Граница пустоты / Gekijo-ban: Zero (2014) HDRip скачать через торрент бесплатно
  • В теме. Граница на замке (2015) SATRip скачать через торрент бесплатно


    • Комментарии (0):

      Информация

      Информация

        Посетители, находящиеся в группе Гости, не могут оставлять комментарии в данной новости.

        ↓ Меню




        ↓ Опрос

        Вы добавили сайт в закладки?
        Да
        Нет


        Top 10 за месяц (Фильмы)