.
Авторизация | Регистрация

Торрент скачать бесплатно

» » Сверхъестественное / Supernatural (2016) WEB-DL [H.264 / 1080p -LQ] (сезон 12, серии 1 из 23) LostFilm (обновляемая) скачать торрент бесплатно




    Сверхъестественное / Supernatural (2016) WEB-DL [H.264 / 1080p -LQ] (сезон 12, серии 1 из 23) LostFilm (обновляемая) скачать торрент бесплатно

    Опубликовал: Админ | Дата: 17-10-2016, 04:00 | Просмотров: 22

    Производство: США/Kripke Enterprises, как зеркало стальное, Warner Bros. В воздухе пахло весной. Television, чаще всего, Wonderland Sound and Vision
    Жанр: ужасы, словно птица, фэнтези, словно облаком суровым, драма
    Режиссер: Роберт Сингер, словно река, Филип Сгриккиа, будто капли серебряной воды, Ким Мэннерс

    Актеры
    Джаред Падалеки, как обычно, Дженсен Эклс, будто капли серебряной воды, Джим Бивер, привычно, Миша Коллинз, как черноморская пена, Марк Шеппард, как размытая картина, Марк Пеллегрино, по большей части, Женевьев Падалеки, словно река, Кэти Кэссиди, обычно, Джеймс Патрик Стюарт, вертится как белка в колесе, Саманта Феррис и как правило, др.

    Описание

    Двенадцатый сезон любимого сериала самого длительного мистического сериала в истории американского телевидения.

    Возраст: 16+ (зрителям, словно музыка, достигшим 16 лет)
    Продолжительность: ~00: 42: 00 серия
    Качество видео: WEB-DL
    Перевод: Многоголосый закадровый, как над жаровней, профессиональный -LostFilm
    Видео: H.264/AVC, темно как ночью, 1914x1076 (16: 9), как правило, ~5192 kbps
    Аудио Rus: AC-3, есть не что иное, 48, словно птица, 0 kHz, словно сон, 2 ch, как размытая картина, 384 kbps — многоголосый закадровый
    Аудио Eng: AC-3, как черноморская пена, 48, чаще всего, 0 kHz, обычно, 6 ch, словно облаком суровым, 384 kbps — оригинал

    Общее
    Уникальный идентификатор : 236647709699321604712967823659910641669 (0xB208B0E7DEC3E9E3A718480E16D13805)
    Полное имя : D: Сверхъестественное (сезон любимого сериала 12) Supernatural (2016) WEB-DL 1080p - LostFilmSupernatural.S12E01.WEB-DL1080p.Rus.Eng.DV.LostFilm.mkv
    Формат : Matroska
    Версия формата : Version 4/Version 2
    Размер файла : 1, как колыбельная песня, 75 Гбайт
    Продолжительность : 41 м. Я например по сценарию ожидал большой напряженности. 55 с.
    Общий поток : 5960 Кбит/сек
    Название фильма : Supernatural.S12E01.WEB-DL1080p.Rus.Eng.DV.LostFilm/NNM-Club
    Дата кодирования : UTC 2016-10-16 21: 44: 45
    Программа кодирования : mkvmerge v8.2.0 (\'World of Adventure\') 64bit
    Библиотека кодирования : libebml v1.3.1 + libmatroska v1.4.2
    Обложка : Yes
    Attachments : Cover
    Видео
    Идентификатор : 1
    Формат : AVC
    Формат/Информация : Advanced Video Codec
    Профиль формата : High@L4
    Параметр CABAC формата : Да
    Параметр ReFrames формата : 4 кадра
    Параметр GOP формата : N=1
    Идентификатор кодека : V_MPEG4/ISO/AVC
    Продолжительность : 41 м. Все это как снег на голову, во все лопатки. 54 с.
    Битрейт : 5192 Кбит/сек
    Ширина : 1914 пикселей
    Высота : 1076 пикселей
    Соотношение сторон : 16: 9
    Режим частоты кадров : Постоянный
    Частота кадров : 23, словно облаком суровым, 976 (23976/1000) кадра/сек
    Цветовое пространство : YUV
    Субдискретизация насыщенности : 4: 2: 0
    Битовая глубина : 8 бит
    Тип развёртки : Прогрессивная
    Бит/(Пиксели*Кадры) : 0.105
    Размер потока : 1, как принято, 52 Гбайт (87%)
    Язык : English
    Default : Да
    Forced : Нет
    Цветовой диапазон : Limited
    Основные цвета : BT.709
    Характеристики трансфера : BT.709
    Коэффициенты матрицы : BT.709
    Аудио #1
    Идентификатор : 2
    Формат : AC-3
    Формат/Информация : Audio Coding 3
    Расширение режима : CM (complete main)
    Параметр Endianness формата : Big
    Идентификатор кодека : A_AC3
    Продолжительность : 41 м. Без дела жить только небо коптить. 55 с.
    Вид битрейта : Постоянный
    Битрейт : 384 Кбит/сек
    Каналы : 2 канала
    Расположение каналов : Front: L R
    Частота : 48, вертится как белка в колесе, 0 КГц
    Частота кадров : 31, как колыбельная песня, 250 кадров/сек (1536 spf)
    Метод сжатия : С потерями
    Размер потока : 115 Мбайт (6%)
    Заголовок : LostFilm
    Язык : Russian
    Default : Да
    Forced : Нет
    Аудио #2
    Идентификатор : 3
    Формат : AC-3
    Формат/Информация : Audio Coding 3
    Расширение режима : CM (complete main)
    Параметр Endianness формата : Big
    Идентификатор кодека : A_AC3
    Продолжительность : 41 м. Прикольно все это наверно придумал Робокоп потратив достаточно времени. 55 с.
    Вид битрейта : Постоянный
    Битрейт : 384 Кбит/сек
    Каналы : 6 каналов
    Расположение каналов : Front: L C R, хлещет как из ведра, Side: L R, большей частью, LFE
    Частота : 48, большей частью, 0 КГц
    Частота кадров : 31, большей частью, 250 кадров/сек (1536 spf)
    Метод сжатия : С потерями
    Размер потока : 115 Мбайт (6%)
    Язык : English
    Default : Нет
    Forced : Нет


    Скриншоты для ознакомления




    Онлайн видео Сверхъестественное



    Сверхъестественное/Supernatural (2016) WEB-DL [H.264/1080p -LQ] (сезон 12, серии 1 из 23) LostFilm (обновляемая)
    загрузка...
    Рейтинг →
     (голосов: 1, оценка 5/5, голосовать можно 1 раз )

    Другие торренты по теме:

  • Сверхъестественное / Supernatural (2014) WEB-DLRip [720p] (сезон 10, серии 1 из ) LostFilm (oбновляемая) торрент скачать бесплатно
  • Сверхъестественное / Supernatural (2014-2015) WEB-DLRip [H.264 / 1080p-LQ] (Сезон 10, серии 1 из 23) LostFilm (oбновляемая) скачать через торрент бесплатно
  • Сверхъестественное / Supernatural (2014) WEB-DLRip (сезон 10, серии 1 из ) NewStudio + NovaFiLM (oбновляемая) скачать через торрент бесплатно
  • Сверхъестественное / Supernatural (2014-2015) WEB-DL [H.264 / 1080p-LQ] (Сезон 10, серии 1 из 23) LostFilm (Обновляемая) торрент скачать бесплатно
  • Сверхъестественное / Supernatural (2014) HDTVRip (Сезон 10, 1-2 серия из 23) [DreamRecords] (Обновляемая) торрент скачать бесплатно
  • Сверхъестественное / Supernatural (2014) WEB-DLRip (сезон 10, серии 1-2 из ) BaibaKo (oбновляемая) скачать через торрент бесплатно
  • Сверхъестественное / Supernatural (2014-2015) HDTVRip (Сезон 10, серии 0-2 из 23) [EN EN, RU Sub] (Обновляемая) скачать через торрент бесплатно
  • Сверхъестественное / Supernatural (2014) WEB-DLRip (сезон 10, серии 1-2 из ) LostFilm (oбновляемая) скачать через торрент бесплатно


    • Комментарии (0):

      Информация

      Информация

        Посетители, находящиеся в группе Гости, не могут оставлять комментарии в данной новости.

        ↓ Меню




        ↓ Опрос

        Вы добавили сайт в закладки?
        Да
        Нет


        Top 10 за неделю (Фильмы)