.
Авторизация | Регистрация
Хочешь лучшие торренты? Добавь свой email!
Добавить

Торрент скачать бесплатно

» » Зимний вечер в Гаграх (1985) HDRip [H.264 / 720p] торрент скачать бесплатно




    Зимний вечер в Гаграх (1985) HDRip [H.264 / 720p] торрент скачать бесплатно

    Опубликовал: Админ | Дата: 17-10-2016, 04:00 | Просмотров: 8

    Производство: СССР, Мосфильм
    Жанр: Комедия, Музыкальный
    Режиссер: Карен Шахназаров

    Актеры
    Евгений Евстигнеев, Аркадий Насыров, Александр Панкратов-Черный, Наталья Гундарева, Сергей Никоненко, Петр Щербаков, Светлана Аманова, Анна Иванова, Георгий Бурков, Александр Ширвиндт

    Описание

    Стремительный ритм, виртуозная и озорная импровизация — вот что такое чечетка.. Главный герой фильма, некогда знаменитый чечеточник, кумир публики, живет ныне скромно и незаметно. Он репетитор танцев в эстрадном коллективе, где блещут иные звезды…
    И вдруг все меняется: к старому артисту словно возвращается молодость. Так подействовала на него встреча с несколько странным молодым человеком, который пришел со сломанной ногой и попросил, чтобы его ни много ни мало научили бить степ…

    Релиз от: smithland
    Продолжительность: 01: 25: 08
    Качество видео: HDRip
    Видео: AVC/H.264, 1120x720, ~4500 Kbps
    Аудио: AC3, 2 ch, 256 kbps, CBR

    General
    Unique ID : 205098751800489990202700071507179682402 (0x9A4C9530149EB2A48724B05BEB793A62)
    Complete name : Зимний вечер в Гаграх.mkv
    Format : Matroska
    Format version : Version 4/Version 2
    File size : 2.82 GiB
    Duration : 1h 25mn
    Overall bit rate : 4 745 Kbps
    Movie name : Зимний вечер в Гаграх (rip by smithland)
    Encoded date : UTC 2016-10-13 17: 11: 26
    Writing application : mkvmerge v9.4.2 (\'So High\') 64bit
    Writing library : libebml v1.3.4 + libmatroska v1.4.5
    Attachements : COVER.jpg
    DURATION : 01: 25: 08.416000000
    NUMBER_OF_FRAMES : 159638
    NUMBER_OF_BYTES : 163469312
    _STATISTICS_WRITING_APP : mkvmerge v9.4.2 (\'So High\') 64bit
    _STATISTICS_WRITING_DATE_UTC : 2016-10-13 17: 11: 26
    _STATISTICS_TAGS : BPS DURATION NUMBER_OF_FRAMES NUMBER_OF_BYTES
    Video
    ID : 1
    Format : AVC
    Format/Info : Advanced Video Codec
    Format profile : High@L4.1
    Format settings, CABAC : Yes
    Format settings, ReFrames : 8 frames
    Codec ID : V_MPEG4/ISO/AVC
    Duration : 1h 25mn
    Bit rate : 4 500 Kbps
    Width : 1 120 pixels
    Height : 720 pixels
    Display aspect ratio : 16: 10
    Frame rate mode : Constant
    Frame rate : 24.000 fps
    Color space : YUV
    Chroma subsampling : 4: 2: 0
    Bit depth : 8 bits
    Scan type : Progressive
    Bits/(Pixel*Frame) : 0.233
    Stream size : 2.61 GiB (93%)
    Writing library : x264 core 146 r2538 121396c
    Encoding settings : cabac=1/ref=8/deblock=1: -1: -1/analyse=0x3: 0x133/me=umh/subme=11/psy=1/psy_rd=1.25: 0.30/mixed_ref=1/me_range=30/chroma_me=1/trellis=2/8x8dct=1/cqm=0/deadzone=21, 11/fast_pskip=1/chroma_qp_offset=-4/threads=12/lookahead_threads=1/sliced_threads=0/nr=0/decimate=0/interlaced=0/bluray_compat=0/constrained_intra=0/bframes=4/b_pyramid=2/b_adapt=1/b_bias=0/direct=1/weightb=1/open_gop=1/weightp=2/keyint=250/keyint_min=23/scenecut=40/intra_refresh=0/rc_lookahead=40/rc=abr/mbtree=1/bitrate=4500/ratetol=1.0/qcomp=0.60/qpmin=0/qpmax=69/qpstep=4/ip_ratio=1.40/aq=1: 1.10
    Language : Russian
    Default : Yes
    Forced : Yes
    Color range : Limited
    Color primaries : Generic film
    Audio
    ID : 2
    Format : AC-3
    Format/Info : Audio Coding 3
    Mode extension : CM (complete main)
    Format settings, Endianness : Big
    Codec ID : A_AC3
    Duration : 1h 25mn
    Bit rate mode : Constant
    Bit rate : 256 Kbps
    Channel(s) : 2 channels
    Channel positions : Front: L R
    Sampling rate : 48.0 KHz
    Compression mode : Lossy
    Stream size : 156 MiB (5%)
    Language : Russian
    Default : Yes
    Forced : Yes


    Скриншоты для ознакомления




    Онлайн видео Зимний вечер в Гаграх (1985) HDRip [H.264



    Зимний вечер в Гаграх (1985) HDRip [H.264/720p]
    загрузка...
    Рейтинг →
     (голосов: 1, оценка 3/5, голосовать можно 1 раз )

    Другие торренты по теме:

  • VA - Турбо Модные Хиты В Зимний Вечер (2016) [MP3|225-256 кб / с] <Pop, House, Dance>


    • Комментарии (0):

      Информация

      Информация

        Посетители, находящиеся в группе Гости, не могут оставлять комментарии в данной новости.

        ↓ Меню




        ↓ Опрос

        Вы добавили сайт в закладки?
        Да
        Нет


        Top 10 за месяц (Фильмы)