.
Авторизация | Регистрация
Хочешь лучшие торренты? Добавь свой email!
Добавить

Торрент скачать бесплатно

» » Люди Икс: Апокалипсис / X-Men: Apocalypse (2016) 4K UltraHD BDRip [H.265 / 2160p] торрент скачать бесплатно




    Люди Икс: Апокалипсис / X-Men: Apocalypse (2016) 4K UltraHD BDRip [H.265 / 2160p] торрент скачать бесплатно

    Опубликовал: Админ | Дата: 17-10-2016, 04:00 | Просмотров: 7

    Производство: США/20th Century Fox Film Corporation, Bad Hat Harry Productions, Donners\' Company
    Жанр: Боевик, Фантастика, Приключения
    Режиссер: Брайан Сингер

    Актеры
    Джеймс МакЭвой, Майкл Фассбендер, Дженнифер Лоуренс, Эван Питерс, Оливия Манн, Роуз Бирн, Оскар Айзек, Софи Тёрнер, Николас Холт, Тай Шеридан, Бен Харди

    Описание

    События Дней Минувшего Будущего оказали колоссальное влияние на мир, где мутанты и люди борются за свое место под Солнцем. В это нелегкое время Людям Икс предстоит столкнуться со своим самым опасным противником — древним мутантом Апокалипсисом, существом, схватка с которым может стать последней не только для мутантов, но и в принципе для всего человечества. В поисках способа победы над неуязвимым и бессмертным монстром Людям Икс предстоит узнать больше о происхождении своего вида. Но Апокалипсис неимоверно силен, и вероятность победы все уменьшается, ведь он твердо убежден, что только сильнейшие имеют право на выживание…

    Возраст: 12+ (зрителям, достигшим 12 лет)
    Рейтинг MPAA: PG-13 (детям до 13 лет просмотр нежелателен)
    Дата выхода 4K UltraHD Blu-ray релиза: 04.10.2016
    Продолжительность: 02: 23: 57
    Качество видео: 4K UltraHD BDRip H.265/2160p
    Перевод: Дублированный
    Видео: HEVC/H.265, 3840x2160, ~60, 9 mbps, (16: 9), 23, 976 fps
    Аудио 1: DTS, 6 ch, 768 kbps, 24-bit - Русский
    Аудио 2: DTS-HD MA, 8ch, 5216 kbps, 24-bit - Английский

    Общее
    Уникальный идентификатор : 242274059182414492024030915604157220642 (0xB644495A361A1949BD26251B9EAEC722)
    Полное имя : Q: MARVEL X-Men VI (2160p h265).mkv
    Формат : Matroska
    Версия формата : Version 4/Version 2
    Размер файла : 67, 2 Гбайт
    Продолжительность : 2 ч. 23 м.
    Общий поток : 66, 9 Мбит/сек
    Дата кодирования : UTC 2016-10-15 06: 18: 32
    Программа кодирования : mkvmerge v9.2.0 (\'Photograph\') 64bit
    Библиотека кодирования : libebml v1.3.3 + libmatroska v1.4.4
    Видео
    Идентификатор : 3
    Формат : HEVC
    Формат/Информация : High Efficiency Video Coding
    Профиль формата : Main10@L6.1@Main
    Идентификатор кодека : V_MPEGH/ISO/HEVC
    Продолжительность : 2 ч. 23 м.
    Битрейт : 60, 9 Мбит/сек
    Ширина : 3840 пикселей
    Высота : 2160 пикселей
    Соотношение сторон : 16: 9
    Режим частоты кадров : Постоянный
    Частота кадров : 23, 976 (24000/1001) кадра/сек
    Цветовое пространство : YUV
    Субдискретизация насыщенности : 4: 2: 0
    Битовая глубина : 10 бит
    Бит/(Пиксели*Кадры) : 0.306
    Размер потока : 61, 2 Гбайт (91%)
    Библиотека кодирования : x265 1.9+3-63308f7658c3: WindowsGCC 5.2.064 bit 10bit
    Настройки программы : wpp/ctu=64/min-cu-size=8/max-tu-size=32/tu-intra-depth=1/tu-inter-depth=1/me=1/subme=2/merange=57/no-rect/no-amp/max-merge=2/temporal-mvp/no-early-skip/rdpenalty=0/no-tskip/no-tskip-fast/strong-intra-smoothing/no-lossless/no-cu-lossless/no-constrained-intra/no-fast-intra/open-gop/no-temporal-layers/interlace=0/keyint=240/min-keyint=24/scenecut=40/rc-lookahead=20/lookahead-slices=8/bframes=4/bframe-bias=0/b-adapt=2/ref=3/limit-refs=3/no-limit-modes/weightp/no-weightb/aq-mode=1/qg-size=32/aq-strength=1.00/cbqpoffs=0/crqpoffs=0/rd=3/psy-rd=2.00/rdoq-level=0/psy-rdoq=0.00/signhide/deblock/sao/no-sao-non-deblock/b-pyramid/cutree/no-intra-refresh/rc=abr/bitrate=61000/qcomp=0.60/qpmin=0/qpmax=51/qpstep=4/ipratio=1.40/pbratio=1.30
    Default : Да
    Forced : Нет
    Цветовой диапазон : Limited
    Основные цвета : BT.709
    Характеристики трансфера : BT.709
    Коэффициенты матрицы : BT.601
    Аудио #1
    Идентификатор : 1
    Формат : DTS
    Формат/Информация : Digital Theater Systems
    Профиль формата : MA/ES Matrix/Core
    Режим : 16
    Параметр Endianness формата : Big
    Идентификатор кодека : A_DTS
    Продолжительность : 2 ч. 23 м.
    Вид битрейта : Переменный/Постоянный/Постоянный
    Битрейт : 5216 Кбит/сек/1509 Кбит/сек/1509 Кбит/сек
    Каналы : 8 каналов/7 каналов/6 каналов
    Расположение каналов : Front: L C R, Side: L R, Back: L R, LFE/Front: L C R, Side: L R, Back: C, LFE/Front: L C R, Side: L R, LFE
    Частота : 48, 0 КГц
    Частота кадров : 93, 750 кадра/сек (512 spf)
    Битовая глубина : 24 бит
    Метод сжатия : Без потерь/Lossy/Lossy
    Задержка видео : 1 с. 495 мс.
    Размер потока : 5, 24 Гбайт (8%)
    Язык : English
    Default : Нет
    Forced : Нет
    Аудио #2
    Идентификатор : 2
    Формат : DTS
    Формат/Информация : Digital Theater Systems
    Режим : 16
    Параметр Endianness формата : Big
    Идентификатор кодека : A_DTS
    Продолжительность : 2 ч. 23 м.
    Вид битрейта : Постоянный
    Битрейт : 768 Кбит/сек
    Каналы : 6 каналов
    Расположение каналов : Front: L C R, Side: L R, LFE
    Частота : 48, 0 КГц
    Частота кадров : 93, 750 кадра/сек (512 spf)
    Битовая глубина : 24 бит
    Метод сжатия : С потерями
    Задержка видео : 1 с. 495 мс.
    Размер потока : 791 Мбайт (1%)
    Язык : Russian
    Default : Да
    Forced : Нет


    Скриншоты для ознакомления




    Онлайн видео Люди Икс: Апокалипсис



    Люди Икс: Апокалипсис/X-Men: Apocalypse (2016) 4K UltraHD BDRip [H.265/2160p]
    загрузка...
    Рейтинг →
     (голосов: 1, оценка 4/5, голосовать можно 1 раз )

    Другие торренты по теме:

  • Люди Икс: Апокалипсис / X-Men: Apocalypse (2016) WEBRip [H.264 / 1080p] [Трейлер] скачать через торрент бесплатно
  • Люди Икс: Апокалипсис / X-Men: Apocalypse (2016) WEBRip [H.264 / 1080p] [Трейлер#2]
  • Люди Икс: Апокалипсис / X-Men: Apocalypse (2016) WEBRip [H.264 / 1080p] [Трейлер#3]
  • Люди Икс: Апокалипсис / X-Men: Apocalypse (2016) CamRip (PROPER)
  • Люди Икс: Апокалипсис / X-Men: Apocalypse (2016) CamRip
  • Люди Икс: Апокалипсис / X-Men: Apocalypse (2016) TS
  • Люди Икс: Апокалипсис / X-Men: Apocalypse (2016) TS
  • Люди Икс: Апокалипсис / X-Men: Apocalypse (2016) CamRip [MP4|624x272] [EN]


    • Комментарии (0):

      Информация

      Информация

        Посетители, находящиеся в группе Гости, не могут оставлять комментарии в данной новости.

        ↓ Меню




        ↓ Опрос

        Вы добавили сайт в закладки?
        Да
        Нет


        Top 10 за месяц (Фильмы)