.
Авторизация | Регистрация
Хочешь лучшие торренты? Добавь свой email!
Добавить

Торрент скачать бесплатно

» » Не дыши / Dont Breathe (2016) WEBRip [H.264 / 1080p-LQ] [EN] торрент скачать бесплатно




    Не дыши / Dont Breathe (2016) WEBRip [H.264 / 1080p-LQ] [EN] торрент скачать бесплатно

    Опубликовал: Админ | Дата: 17-10-2016, 04:00 | Просмотров: 27

    Производство: США, Screen Gems, Stage 6 Films, Ghost House Pictures, Blind Man Productions, Good Universe
    Жанр: Ужасы, Триллер, Криминал
    Режиссер: Федерико Альварес

    Актеры
    Стивен Лэнг, Джейн Леви, Дилан Миннетт, Дэниэл Дзоватто, Эмма Берковичи, Франциска Тёрёчик, Кристиан Сахиа, Катя Бокор, Сергей Онопко, Оливия Гиллис...

    Описание

    Грабители забираются в дом одинокого слепого старика с целью украсть огромную сумму, которая, по слухам, спрятана где-то внутри. Казалось бы — что может быть проще, чем вынести деньги из дома практически беспомощного человека. Но они жестоко ошибаются: преследуемый становится преследователем. И тайна, которую он хранит, гораздо страшнее, чем обычные пенсионные накопления.

    Возраст: 18+ (зрителям, достигшим 18 лет. запрещено для детей)
    Рейтинг MPAA: R (лицам до 17 лет обязательно присутствие взрослого)
    Премьера (мир): 12 марта 2016, ...
    Премьера (РФ): 25 августа 2016, WDSSPR

    Продолжительность: 01: 28: 29
    Качество видео: WEBRip 1080p
    Перевод: Отсутствует
    Язык озвучки: Английский
    Видео: AVC, 1920x1080 (16: 9), 25.000 fps, 4 500 Kbps (0.087 bit/pixel)
    Аудио: AAC LC, 48.0 KHz, 2 ch, 224 kb/s (English)

    General
    Complete name : D: Dont.Breathe.2016.1080p.WEBRip.x264.AAC2.0.mkv
    Format : Matroska
    Format version : Version 4/Version 2
    File size : 2.90 GiB
    Duration : 1 h 28 min
    Overall bit rate : 4 688 kb/s
    Encoded date : UTC 2016-10-14 19: 52: 31
    Writing application : mkvmerge v9.4.2 (\'So High\') 64bit
    Writing library : libebml v1.3.4 + libmatroska v1.4.5
    Video
    ID : 1
    Format : AVC
    Format/Info : Advanced Video Codec
    Format profile : High@L4.1
    Format settings, CABAC : Yes
    Format settings, ReFrames : 4 frames
    Codec ID : V_MPEG4/ISO/AVC
    Duration : 1 h 28 min
    Bit rate : 4 500 kb/s
    Width : 1 920 pixels
    Height : 1 080 pixels
    Display aspect ratio : 16: 9
    Frame rate mode : Constant
    Frame rate : 25.000 FPS
    Color space : YUV
    Chroma subsampling : 4: 2: 0
    Bit depth : 8 bits
    Scan type : Progressive
    Bits/(Pixel*Frame) : 0.087
    Stream size : 2.76 GiB (95%)
    Writing library : x264 core 148 r2694 3b70645
    Encoding settings : cabac=1/ref=4/deblock=1: 0: 0/analyse=0x3: 0x113/me=umh/subme=8/psy=1/psy_rd=1.00: 0.00/mixed_ref=1/me_range=16/chroma_me=1/trellis=1/8x8dct=1/cqm=0/deadzone=21, 11/fast_pskip=1/chroma_qp_offset=-2/threads=40/lookahead_threads=6/sliced_threads=0/nr=0/decimate=1/interlaced=0/bluray_compat=0/constrained_intra=0/bframes=3/b_pyramid=2/b_adapt=2/b_bias=0/direct=3/weightb=1/open_gop=0/weightp=2/keyint=250/keyint_min=25/scenecut=40/intra_refresh=0/rc_lookahead=50/rc=abr/mbtree=1/bitrate=4500/ratetol=1.0/qcomp=0.60/qpmin=0/qpmax=69/qpstep=4/ip_ratio=1.40/aq=1: 1.00
    Language : English
    Default : Yes
    Forced : No
    Audio
    ID : 2
    Format : AAC
    Format/Info : Advanced Audio Codec
    Format profile : LC
    Codec ID : A_AAC
    Duration : 1 h 28 min
    Bit rate : 224 kb/s
    Channel(s) : 2 channels
    Channel positions : Front: L R
    Sampling rate : 48.0 kHz
    Frame rate : 46.875 FPS (1024 spf)
    Compression mode : Lossy
    Stream size : 142 MiB (5%)
    Language : English
    Default : Yes
    Forced : No


    Скриншоты для ознакомления




    Онлайн видео Не дыши



    Не дыши/Dont Breathe (2016) WEBRip [H.264/1080p-LQ] [EN]
    загрузка...
    Рейтинг →
     (голосов: 1, оценка 5/5, голосовать можно 1 раз )

    Другие торренты по теме:

  • Не дыши / Dont Breathe (2016) TS
  • Не дыши / Dont Breathe (2016) WEBRip [Звук с TS]
  • Не дыши / Dont Breathe (2016) WEBRip [H.264] [VO]
  • Не дыши / Dont Breathe (2016) WEBRip [H.264 / 1080p-LQ] [VO]
  • Не дыши / Dont Breathe (2016) AC3 2.0 [Solod]
  • Не дыши / Dont Breathe (2016) WEBRip [H.264 / 1080p-LQ]
  • Не дыши / Dont Breathe (2016) WEBRip
  • Не дыши / Dont Breathe (2016) WEBRip [H.264 / 1080p-LQ] [Line]


    • Комментарии (0):

      Информация

      Информация

        Посетители, находящиеся в группе Гости, не могут оставлять комментарии в данной новости.

        ↓ Меню




        ↓ Опрос

        Вы добавили сайт в закладки?
        Да
        Нет


        Top 10 за месяц (Фильмы)