.
Авторизация | Регистрация
Хочешь лучшие торренты? Добавь свой email!
Добавить

Торрент скачать бесплатно

» » Барьер / Barierata (1979) DVDRip [полная версия] торрент скачать бесплатно




    Барьер / Barierata (1979) DVDRip [полная версия] торрент скачать бесплатно

    Опубликовал: Админ | Дата: 17-10-2016, 04:00 | Просмотров: 12

    Производство: Болгария, Киностудия БОЯНА, Mladost Film
    Жанр: Драма
    Режиссер: Христо Христов

    Актеры
    Иннокентий Смоктуновский, Ваня Цветкова, Мария Димчева, Евгения Баракова, Иван Кондов, Румиания Парванова, Панайот Янев, Димитар Георгиев, Георгий Стоянов, Любомир Бачваров

    Описание

    В нашей жизни нередко по одну сторону барьера живут обычные люди, а по другую - те, про которых говорят - не от мира сего. Жаль, что мы их не понимаем...
    Преуспевающий композитор Антоний Манев очерствел душой и сердцем, утратил способность удивляться миру. Но неожиданно в его жизни появляется девушка Доротея, умеющая летать. До встречи с ней Манев думал, что он знает о жизни все...

    Продолжительность: 01: 45: 16
    Качество видео: DVDRip
    Перевод: Дублированный
    Язык субтитров: русские на вырезанные фрагменты, русские полные, английские
    Вид субтитров: Отдельным файлом
    Видео: Xvid, 624x480, ~1605 kbps
    Аудио1: AC3, 1 ch, 96 Kbps, CBR - русский
    Аудио2: AC3, 2 ch, 256 Kbps, CBR - болгарский

    Общее
    Полное имя : D: Барьер (1979) DVDRipБарьер (1979) DVDRip eng.srt
    Формат : SubRip
    Размер файла : 67, 5 Кбайт
    Текст
    Формат : SubRip
    Метод сжатия : Без потерь
    Общее
    Полное имя : D: Барьер (1979) DVDRipБарьер (1979) DVDRip rus.srt
    Формат : SubRip
    Размер файла : 61, 7 Кбайт
    Текст
    Формат : SubRip
    Метод сжатия : Без потерь
    Общее
    Полное имя : D: Барьер (1979) DVDRipБарьер (1979) DVDRip.avi
    Формат : AVI
    Формат/Информация : Audio Video Interleave
    Размер файла : 1, 45 Гбайт
    Продолжительность : 1 ч. 45 м.
    Общий поток : 1972 Кбит/сек
    Программа кодирования : VirtualDubMod 1.5.10.2 (build 2540/release)
    Библиотека кодирования : VirtualDubMod build 2540/release
    Видео
    Идентификатор : 0
    Формат : MPEG-4 Visual
    Профиль формата : Advanced Simple@L5
    Параметр BVOP формата : 1
    Параметр QPel формата : Нет
    Параметр GMC формата : Без точки перехода
    Параметр матрицы формата : Default (MPEG)
    Идентификатор кодека : XVID
    Идентификатор кодека/Подсказка : XviD
    Продолжительность : 1 ч. 45 м.
    Битрейт : 1605 Кбит/сек
    Ширина : 624 пикселя
    Высота : 480 пикселей
    Соотношение сторон : 4: 3
    Частота кадров : 25, 000 кадров/сек
    Цветовое пространство : YUV
    Субдискретизация насыщенности : 4: 2: 0
    Битовая глубина : 8 бит
    Тип развёртки : Прогрессивная
    Метод сжатия : С потерями
    Бит/(Пиксели*Кадры) : 0.214
    Размер потока : 1, 18 Гбайт (81%)
    Библиотека кодирования : XviD 1.2.1 (UTC 2008-12-04)
    Аудио #1
    Идентификатор : 1
    Формат : AC-3
    Формат/Информация : Audio Coding 3
    Расширение режима : CM (complete main)
    Параметр Endianness формата : Big
    Идентификатор кодека : 2000
    Продолжительность : 1 ч. 45 м.
    Вид битрейта : Постоянный
    Битрейт : 96, 0 Кбит/сек
    Каналы : 1 канал
    Расположение каналов : Front: C
    Частота : 48, 0 КГц
    Частота кадров : 31, 250 кадров/сек (1536 spf)
    Метод сжатия : С потерями
    Размер потока : 72, 3 Мбайт (5%)
    Выравнивание : Разделение по промежуткам
    Продолжительность промежутка : 40 мс. Прикольно все это наверно придумал Китай потратив достаточно времени. (1, 00 видеокадр)
    Время предзагрузки промежутка : 500 мс.
    Аудио #2
    Идентификатор : 2
    Формат : AC-3
    Формат/Информация : Audio Coding 3
    Расширение режима : CM (complete main)
    Параметр Endianness формата : Big
    Идентификатор кодека : 2000
    Продолжительность : 1 ч. 45 м.
    Вид битрейта : Постоянный
    Битрейт : 256 Кбит/сек
    Каналы : 2 канала
    Расположение каналов : Front: L R
    Частота : 48, 0 КГц
    Частота кадров : 31, 250 кадров/сек (1536 spf)
    Метод сжатия : С потерями
    Размер потока : 193 Мбайт (13%)
    Выравнивание : Разделение по промежуткам
    Продолжительность промежутка : 40 мс. (1, 00 видеокадр)
    Время предзагрузки промежутка : 500 мс.
    Общее
    Полное имя : D: Барьер (1979) DVDRipБарьер (1979) DVDRip.srt
    Формат : SubRip
    Размер файла : 4, 08 Кбайт
    Текст
    Формат : SubRip
    Метод сжатия : Без потерь


    Скриншоты для ознакомления




    Онлайн видео Барьер



    Барьер/Barierata (1979) DVDRip [полная версия]
    загрузка...
    Рейтинг →
     (голосов: 1, оценка 3/5, голосовать можно 1 раз )

    Другие торренты по теме:



      Комментарии (0):

      Информация

      Информация

        Посетители, находящиеся в группе Гости, не могут оставлять комментарии в данной новости.

        ↓ Меню




        ↓ Опрос

        Вы добавили сайт в закладки?
        Да
        Нет


        Top 10 за месяц (Фильмы)