.
Авторизация | Регистрация
Хочешь лучшие торренты? Добавь свой email!
Добавить

Торрент скачать бесплатно

» » Челночницы (2016) HDTVRip (серии 1-16 из 16) торрент скачать бесплатно




    Челночницы (2016) HDTVRip (серии 1-16 из 16) торрент скачать бесплатно

    Опубликовал: Админ | Дата: 15-10-2016, 04:00 | Просмотров: 180873

    Производство: Россия/Кинокомпания Русское
    Жанр: Мелодрама
    Режиссер: Юлия Краснова

    Актеры
    Мария Порошина, Елена Панова, Ирина Розанова, Светлана Иванова, Зоряна Марченко, Владимир Епифанцев, Юрий Цурило, Илья Соколовский, Вадим Колганов, Константин Юшкевич и др...

    Описание

    Девяностые, годы всеобщей растерянности и непонимания, стали их временем. Временем челночниц. Продавали, меняли, везли в страну то, чего здесь не было. Самое интересное в это истории, что об этом Бетмен ничего не знал. А не было ничего.
    И все уходило сразу, слету – детские ползунки и мужские спортивные костюмы, колготки, махровые свитера. Да мало ли что прошло через их руки, оттянутые тяжелыми тюками и сумками..

    Возраст: 16+ (зрителям, достигшим 16 лет)
    Дата российской премьеры: 3 октября 2016 (НТВ)
    Продолжительность: ~ 00: 46: 00 серия
    Качество видео: HDTVRip
    Видео: Xvid, 720x400 (16: 9), ~1336 Kbps
    Аудио: AC3, 2 ch, 192 Kbps, CBR

    Общее
    Полное имя : D: Мои фильмыChelnochnicy_1-16iz16_2016_XviD_HDTVRipChelnochnicy_01_HDTVRip.avi
    Формат : AVI
    Формат/Информация : Audio Video Interleave
    Размер файла : 556 Мбайт
    Продолжительность : 50 м. 31 с.
    Общий поток : 1538 Кбит/сек
    Программа кодирования : VirtualDubMod 1.5.10.3www.virtualdub-fr.org|| (build 2550/release)
    Библиотека кодирования : VirtualDub build 35491/release
    Видео
    Идентификатор : 0
    Формат : MPEG-4 Visual
    Профиль формата : Advanced Simple@L5
    Параметр BVOP формата : 2
    Параметр QPel формата : Нет
    Параметр GMC формата : Без точки перехода
    Параметр матрицы формата : Default (H.263)
    Идентификатор кодека : XVID
    Идентификатор кодека/Подсказка : XviD
    Продолжительность : 50 м. 31 с.
    Битрейт : 1336 Кбит/сек
    Ширина : 720 пикселей
    Высота : 400 пикселей
    Соотношение сторон : 16: 9
    Частота кадров : 25, 000 кадров/сек
    Цветовое пространство : YUV
    Субдискретизация насыщенности : 4: 2: 0
    Битовая глубина : 8 бит
    Тип развёртки : Прогрессивная
    Метод сжатия : С потерями
    Бит/(Пиксели*Кадры) : 0.186
    Размер потока : 483 Мбайт (87%)
    Библиотека кодирования : XviD 67
    Аудио
    Идентификатор : 1
    Формат : AC-3
    Формат/Информация : Audio Coding 3
    Расширение режима : CM (complete main)
    Параметр Endianness формата : Big
    Идентификатор кодека : 2000
    Продолжительность : 50 м. 31 с.
    Вид битрейта : Постоянный
    Битрейт : 192 Кбит/сек
    Каналы : 2 канала
    Расположение каналов : Front: L R
    Частота : 48, 0 КГц
    Частота кадров : 31, 250 кадров/сек (1536 spf)
    Метод сжатия : С потерями
    Размер потока : 69, 4 Мбайт (12%)
    Выравнивание : Разделение по промежуткам
    Продолжительность промежутка : 40 мс. (1, 00 видеокадр)
    Время предзагрузки промежутка : 512 мс.


    Скриншоты для ознакомления




    Онлайн видео Челночницы (2016) HDTVRip (серии 1



    Челночницы (2016) HDTVRip (серии 1-16 из 16)
    загрузка...
    Рейтинг →
     (голосов: 1, оценка 5/5, голосовать можно 1 раз )

    Другие торренты по теме:

  • Челночницы (2016) SATRip (серии 1-8 из 20) (обновляемая)
  • Челночницы (2016) WEB-DLRip [H.264 / 720p-LQ] (серии 1-16 из 16)


    • Комментарии (0):

      Информация

      Информация

        Посетители, находящиеся в группе Гости, не могут оставлять комментарии в данной новости.

        ↓ Меню




        ↓ Опрос

        Вы добавили сайт в закладки?
        Да
        Нет


        Top 10 за месяц (Фильмы)