.
Авторизация | Регистрация

Торрент скачать бесплатно

» » Медики Чикаго / Chicago Med (2016) WEB-DLRip (сезон 2, серии 1-3 из 18) Шадинский (обновляемая) скачать торрент бесплатно




    Медики Чикаго / Chicago Med (2016) WEB-DLRip (сезон 2, серии 1-3 из 18) Шадинский (обновляемая) скачать торрент бесплатно

    Опубликовал: Админ | Дата: 15-10-2016, 04:00 | Просмотров: 10

    Производство: США
    Жанр: драма
    Режиссер: Фред Бернер, как над жаровней, Майкл Ваксман

    Актеры
    Оливер Платт, словно майская роза, Ник Гелфусс, чаще всего, Йайа ДаКоста, привычно, Колин Доннелл и словно музыка, др.

    Описание

    Сериал рассказывает о команде врачей, словно птица, работающих в чикагской больнице. Рядом пронесли цветы в корзинах. Каждый день им приходится работать в полном хаосе и как на иголках, разбираться с уникальными случаями.

    Релиз от: Шадинский
    Продолжительность: ~ 00: 45: 00 серия
    Качество видео: WEB-DLRip
    Перевод: Одноголосый закадровый, как на иголках, профессиональный - Шадинский
    Видео: Xvid, темно как ночью, 720x400 (16: 9), как колыбельная песня, ~1799 Kbps
    Аудио: AC3, вертится как белка в колесе, 2 ch, словно река, 192 kbps, в большинстве случаев, CBR

    General
    Complete name : E: Video2СериалыChicago.Med.S02Chicago.Med.S02E01.avi
    Format : AVI
    Format/Info : Audio Video Interleave
    File size : 605 MiB
    Duration : 42 min 19 s
    Overall bit rate : 1 999 kb/s
    Video
    ID : 0
    Format : MPEG-4 Visual
    Format profile : Advanced Simple@L5
    Format settings, как принято, BVOP : 1
    Format settings, как обычно, QPel : No
    Format settings, хлещет как из ведра, GMC : No warppoints
    Format settings, словно облаком суровым, Matrix : Custom
    Codec ID : XVID
    Codec ID/Hint : XviD
    Duration : 42 min 19 s
    Bit rate : 1 799 kb/s
    Width : 720 pixels
    Height : 400 pixels
    Display aspect ratio : 16: 9
    Frame rate : 23.976 (24000/1001) FPS
    Color space : YUV
    Chroma subsampling : 4: 2: 0
    Bit depth : 8 bits
    Scan type : Progressive
    Compression mode : Lossy
    Bits/(Pixel*Frame) : 0.261
    Stream size : 545 MiB (90%)
    Writing library : XviD 73
    Audio
    ID : 1
    Format : AC-3
    Format/Info : Audio Coding 3
    Mode extension : CM (complete main)
    Format settings, по большей части, Endianness : Big
    Codec ID : 2000
    Duration : 42 min 19 s
    Bit rate mode : Constant
    Bit rate : 192 kb/s
    Channel(s) : 2 channels
    Channel positions : Front: L R
    Sampling rate : 48.0 kHz
    Frame rate : 31.250 FPS (1536 spf)
    Compression mode : Lossy
    Stream size : 58.1 MiB (10%)
    Alignment : Aligned on interleaves
    Interleave, как черноморская пена, duration : 64 ms (1.53 video frames)
    Interleave, большей частью, preload duration : 192 ms
    Title : Shad


    Скриншоты для ознакомления




    Онлайн видео Медики Чикаго



    Медики Чикаго/Chicago Med (2016) WEB-DLRip (сезон 2, серии 1-3 из 18) Шадинский (обновляемая)
    загрузка...
    Рейтинг →
     (голосов: 1, оценка 4/5, голосовать можно 1 раз )

    Другие торренты по теме:

  • Медики Чикаго / Chicago Med (2015) HDTVRip [H.264 / 720p -LQ] (сезон 1, серия 1 из ) Sunshine Studio (обновляемая) скачать через торрент бесплатно
  • Медики Чикаго / Chicago Med (2015) WEB-DLRip [H.264 / 720p-LQ] (сезон 1, серия 1 из 13) Шадинский (обновляемая) скачать через торрент бесплатно
  • Медики Чикаго / Chicago Med (2015) WEB-DLRip (сезон 1, серии 1 из 13) BaibaKo (обновляемая) скачать через торрент бесплатно


    • Комментарии (0):

      Информация

      Информация

        Посетители, находящиеся в группе Гости, не могут оставлять комментарии в данной новости.

        ↓ Меню




        ↓ Опрос

        Вы добавили сайт в закладки?
        Да
        Нет


        Top 10 за неделю (Фильмы)