.
Авторизация | Регистрация
Хочешь лучшие торренты? Добавь свой email!
Добавить

Торрент скачать бесплатно

» » Универ. Новая Общага (2016) WEB-DL [H.264 / 720p-LQ] (сезон 11, серии 1-3 из 19) (обновляемая) торрент скачать бесплатно




    Универ. Новая Общага (2016) WEB-DL [H.264 / 720p-LQ] (сезон 11, серии 1-3 из 19) (обновляемая) торрент скачать бесплатно

    Опубликовал: Админ | Дата: 14-10-2016, 04:00 | Просмотров: 20

    Производство: Россия/Комеди Клаб Продакшн
    Жанр: комедия
    Режиссер: Михаил Старчак, Рустам Мосафир

    Актеры
    рарат Кещян, Станислав Ярушин, Анна Кузина, Настасья Самбурская, Анна Хилькевич, Владимир Фекленко, Елена Валюшкина, Андрей Лебедев, Сергей Пиоро, Роман Куперман и др.

    Описание

    Антон и Кристина переезжают в своё собственное любовное гнёздышко. Вот только оказывается, что свить его не так-то просто, даже если все расходы берёт на себя папа-олигарх Лев Андреевич. Майкл, как ни странно, продолжает встречаться с Варей. Всё бы ничего, но теперь, когда Зуев знает об их отношениях, Майклу приходится общаться с начальником не только по рабочим вопросам, но и по домашним. Как бы ни старались Маша с Валей жить спокойной студенческой жизнью, радуясь своему странному союзу, – ничего у них не выходит...

    Возраст: 16+ (зрителям, достигшим 16 лет)
    Продолжительность: ~00: 25: 00 серия
    Качество видео: WEB-DL
    Видео: AVC/H.264, 1280x720 (16: 9), ~3600 kbps
    Аудио: AC3, 2 ch, 192 kbps

    Общее
    Уникальный идентификатор : 195514998429173188946294388654331235883 (0x9316D1AA526BB8D99A66773C01598E2B)
    Полное имя : D: СЕРИАЛЫUniver.11.Novaya.obschaga.2016.WEB-DL.(720p)Univer.11.Novaya.obschaga.(01.seriya).2016.WEB-DL.(720p).mkv
    Формат : Matroska
    Версия формата : Version 4/Version 2
    Размер файла : 667 Мбайт
    Продолжительность : 24 м.
    Общий поток : 3792 Кбит/сек
    Дата кодирования : UTC 2016-10-10 17: 35: 53
    Программа кодирования : mkvmerge v9.4.2 (\'So High\') 64bit
    Библиотека кодирования : libebml v1.3.4 + libmatroska v1.4.5
    Видео
    Идентификатор : 1
    Формат : AVC
    Формат/Информация : Advanced Video Codec
    Профиль формата : High@L3.1
    Параметр CABAC формата : Да
    Параметр ReFrames формата : 1 кадр
    Параметр GOP формата : M=1, N=12
    Идентификатор кодека : V_MPEG4/ISO/AVC
    Продолжительность : 24 м.
    Битрейт : 3597 Кбит/сек
    Ширина : 1280 пикселей
    Высота : 720 пикселей
    Соотношение сторон : 16: 9
    Режим частоты кадров : Постоянный
    Частота кадров : 25, 000 кадров/сек
    Стандарт вещания : Component
    Цветовое пространство : YUV
    Субдискретизация насыщенности : 4: 2: 0
    Битовая глубина : 8 бит
    Тип развёртки : Прогрессивная
    Бит/(Пиксели*Кадры) : 0.156
    Размер потока : 632 Мбайт (95%)
    Default : Да
    Forced : Нет
    Цветовой диапазон : Limited
    Аудио
    Идентификатор : 2
    Формат : AC-3
    Формат/Информация : Audio Coding 3
    Расширение режима : CM (complete main)
    Параметр Endianness формата : Big
    Идентификатор кодека : A_AC3
    Продолжительность : 24 м.
    Вид битрейта : Постоянный
    Битрейт : 192 Кбит/сек
    Каналы : 2 канала
    Расположение каналов : Front: L R
    Частота : 48, 0 КГц
    Частота кадров : 31, 250 кадров/сек (1536 spf)
    Метод сжатия : С потерями
    Размер потока : 33, 7 Мбайт (5%)
    Default : Да
    Forced : Нет


    Скриншоты для ознакомления




    Онлайн видео Универ. Новая Общага (2016) WEB-DL [H.264



    Универ. Новая Общага (2016) WEB-DL [H.264/720p-LQ] (сезон 11, серии 1-3 из 19) (обновляемая)
    загрузка...
    Рейтинг →
     (голосов: 1, оценка 5/5, голосовать можно 1 раз )

    Другие торренты по теме:

  • Универ. Новая общага (2011-2015) SATRip (сезон 1-10, серии 1-199 из 199 + Универ. День открытых дверей + Новогодняя серия 2014) скачать через торрент бесплатно
  • Универ. Новая общага (2011-2016) SATRip (сезон 1-11, серии 1-219 из 219 + Новогодняя серия (2014) + Универ. День открытых дверей)
  • Универ. Новая общага (2011-2017) SATRip / WEB-DLRip (сезон 1-12, серии 1-240 из 240 + Новогодняя серия (2014, 2016) + Универ. День открытых дверей)
  • Универ. Новая общага (2014) WEB-DLRip [H.264] (Сезон 7, серии 121-136) (обновляемая)
  • Универ. Новая общага (2014) WEB-DL [720p] (Сезон 7, серии 121-136) (обновляемая)
  • Универ. Новая общага (2014) WEB-DLRip [H.264 / 720p-LQ] (сезон 7, серии 1-16 из (121-136 из )) (обновляемая)
  • Универ. Новая общага (2015) WEB-DLRip [H.264] (сезон 8, серии 1- из 20) (обновляемая) скачать через торрент бесплатно
  • Универ. Новая общага (2015) WEB-DLRip (сезон 8, серии 1- из 20) (обновляемая) скачать через торрент бесплатно


    • Комментарии (0):

      Информация

      Информация

        Посетители, находящиеся в группе Гости, не могут оставлять комментарии в данной новости.

        ↓ Меню




        ↓ Опрос

        Вы добавили сайт в закладки?
        Да
        Нет


        Top 10 за месяц (Фильмы)