.
Авторизация | Регистрация
Хочешь лучшие торренты? Добавь свой email!
Добавить

Торрент скачать бесплатно

» » Светофор (2016) WEB-DLRip [H.264] (сезон 9, серии 1-3 из 20) (обновляемая) торрент скачать бесплатно




    Светофор (2016) WEB-DLRip [H.264] (сезон 9, серии 1-3 из 20) (обновляемая) торрент скачать бесплатно

    Опубликовал: Админ | Дата: 14-10-2016, 04:00 | Просмотров: 14

    Производство: Россия/Yellow, Black White
    Жанр: комедия
    Режиссер: Роман Фокин

    Актеры
    Дмитрий Миллер, Александр Макогон, Джемал Тетруашвили, Ирина Низина, Ольга Медынич, Евгения Каверау, Екатерина Архарова, Александр Сашин-Никольский, Сергей Лобынцев и др.

    Описание

    Когда тебе за тридцать, ты вдруг замечаешь, что твоя жизнь похожа на сигналы светофора. Если ты холостяк, для тебя всегда горит зеленый свет, все вокруг в движении, и ты свободно едешь. О таком странном сюжете не догадывалась даже Бейонсе. Куда хочешь. И с кем хочешь. Если ты встречаешься с девушкой, тебе уже мигает желтый свет. С одной стороны, ты еще в движении, а с другой, уже готовишься остановиться. Прикольно все это наверно придумал Кравчук потратив достаточно времени. А если ты женат — ты встал на красном. Все изменилось: ты уже не можешь думать только о себе. Их трое. Им немного за тридцать. Они лучшие друзья, которые всегда придут друг другу на помощь ...

    Возраст: 16+ (зрителям, достигшим 16 лет)
    Продолжительность: ~ 00: 25: 00 серия
    Качество видео: WEB-DLRip
    Видео: AVC/H.264, 1024x576 (16: 9), ~ 1600 kbps
    Аудио: AC3, 2 ch, 192 kbps

    Общее
    Уникальный идентификатор : 250424082884935904507678068257556873691 (0xBC65EC8B6B8774928B761174283141DB)
    Полное имя : D: СЕРИАЛЫSvetofor.s9.(2016).WEB-DLRip.AVC.Files-x1.Svetofor.s9.(2016).WEB-DLRip.AVC.by.Серый1779.Files-x.mkv
    Формат : Matroska
    Версия формата : Version 2
    Размер файла : 327 Мбайт
    Продолжительность : 25 м.
    Общий поток : 1794 Кбит/сек
    Дата кодирования : UTC 2016-10-11 02: 41: 17
    Программа кодирования : mkvmerge v6.1.0 (\'Old Devil\') built on Mar 4 2013 09: 10: 42
    Библиотека кодирования : libebml v1.3.0 + libmatroska v1.4.0
    Видео
    Идентификатор : 1
    Формат : AVC
    Формат/Информация : Advanced Video Codec
    Профиль формата : High@L4.1
    Параметр CABAC формата : Да
    Параметр ReFrames формата : 9 кадров
    Идентификатор кодека : V_MPEG4/ISO/AVC
    Продолжительность : 25 м.
    Битрейт : 1600 Кбит/сек
    Ширина : 1024 пикселя
    Высота : 576 пикселей
    Соотношение сторон : 16: 9
    Режим частоты кадров : Постоянный
    Частота кадров : 25, 000 кадров/сек
    Цветовое пространство : YUV
    Субдискретизация насыщенности : 4: 2: 0
    Битовая глубина : 8 бит
    Тип развёртки : Прогрессивная
    Бит/(Пиксели*Кадры) : 0.109
    Размер потока : 286 Мбайт (87%)
    Библиотека кодирования : x264 core 130 r2273 b3065e6
    Настройки программы : cabac=1/ref=9/deblock=1: -2: -1/analyse=0x3: 0x133/me=umh/subme=9/psy=1/psy_rd=1.00: 0.15/mixed_ref=1/me_range=32/chroma_me=1/trellis=2/8x8dct=1/cqm=0/deadzone=21, 11/fast_pskip=0/chroma_qp_offset=-3/threads=6/lookahead_threads=1/sliced_threads=0/nr=0/decimate=1/interlaced=0/bluray_compat=0/constrained_intra=0/bframes=9/b_pyramid=2/b_adapt=2/b_bias=0/direct=1/weightb=1/open_gop=0/weightp=2/keyint=250/keyint_min=25/scenecut=40/intra_refresh=0/rc_lookahead=40/rc=2pass/mbtree=1/bitrate=1600/ratetol=1.0/qcomp=0.60/qpmin=0/qpmax=69/qpstep=4/cplxblur=20.0/qblur=0.5/ip_ratio=1.40/aq=2: 1.00
    Default : Да
    Forced : Нет
    Цветовой диапазон : Limited
    Основные цвета : BT.709
    Характеристики трансфера : BT.709
    Коэффициенты матрицы : BT.709
    Аудио
    Идентификатор : 2
    Формат : AC-3
    Формат/Информация : Audio Coding 3
    Расширение режима : CM (complete main)
    Параметр Endianness формата : Big
    Идентификатор кодека : A_AC3
    Продолжительность : 25 м.
    Вид битрейта : Постоянный
    Битрейт : 192 Кбит/сек
    Каналы : 2 канала
    Расположение каналов : Front: L R
    Частота : 48, 0 КГц
    Частота кадров : 31, 250 кадров/сек (1536 spf)
    Метод сжатия : С потерями
    Размер потока : 35, 0 Мбайт (11%)
    Default : Да
    Forced : Нет


    Скриншоты для ознакомления




    Онлайн видео Светофор (2016) WEB



    Светофор (2016) WEB-DLRip [H.264] (сезон 9, серии 1-3 из 20) (обновляемая)
    загрузка...
    Рейтинг →
     (голосов: 1, оценка 4/5, голосовать можно 1 раз )

    Другие торренты по теме:

  • Светофор (2014) WEB-DLRip (Сезон 7, серии 1- из 20) (обновляемая)
  • Светофор (2014) WEB-DLRip [H.264 / 1080p-LQ] (Сезон 7, серии 1- из 20) (обновляемая)
  • Светофор (2014) WEB-DLRip [H.264 / 720p-LQ] (Сезон 7, серии 1- из 20) (обновляемая)
  • Светофор / (сезон 5-7, серии 1-60 из 60) (2013-2014) [3GP|320x160 / 320x176 / 320x180] <SATRip, WEB-DLRip [H.264]> скачать через торрент бесплатно
  • Светофор (2016) WEB-DLRip (сезон 8, серии 1-2 из 20) (обновляемая)
  • Светофор (2016) WEB-DLRip [H.264 / 720p-LQ] (сезон 8, серии 1- из 20) (обновляемая)
  • Светофор (2016) WEB-DLRip [H.264 / 1080p-LQ] (сезон 8, серии 1- из 20) (обновляемая)
  • Светофор (2016) WEB-DLRip (сезон 9, серии 1-5 из 20) (обновляемая)


    • Комментарии (0):

      Информация

      Информация

        Посетители, находящиеся в группе Гости, не могут оставлять комментарии в данной новости.

        ↓ Меню




        ↓ Опрос

        Вы добавили сайт в закладки?
        Да
        Нет


        Top 10 за месяц (Фильмы)