.
Авторизация | Регистрация
Хочешь лучшие торренты? Добавь свой email!
Добавить

Торрент скачать бесплатно

» » Светофор (2016) WEB-DLRip (сезон 9, серии 1-5 из 20) (обновляемая) торрент скачать бесплатно




    Светофор (2016) WEB-DLRip (сезон 9, серии 1-5 из 20) (обновляемая) торрент скачать бесплатно

    Опубликовал: Админ | Дата: 14-10-2016, 04:00 | Просмотров: 13

    Производство: Россия/Yellow, Black and White
    Жанр: комедия
    Режиссер: Роман Фокин

    Актеры
    Джемал Тетруашвили, Александр Макогон, Дмитрий Миллер, Ольга Медынич, Оскар Кучера, Антонина Комиссарова и др.

    Описание

    Многие телезрители уже успели соскучиться по любимым киногероям Светофора. Поэтому спешим вас обрадовать - все главные персонажи Сева, Паша и Эдик вновь будут удивлять безумными приключениями, которые относятся к разряду нарочно не придумаешь. Это своего рода продолжение истории Светофора с теми же героями, но новыми событиями. Нашим парням - Эдику, Паше и Севе кажется, что все экстремальное осталось в прошлом, но они глубоко ошибаются.

    Возраст: 16+ (зрителям, достигшим 16 лет)
    Релиз от: ivandubskoj
    Продолжительность: ~00: 25: 00 серия
    Качество видео: WEB-DLRip
    Видео: XviD, 704x400, ~1778 Кбит/сек
    Аудио: MP3, 2 канала, 128 Кбит/сек, CBR
    General
    Complete name : Svetofor.s09.e01.WEB-DLRip.avi
    Format : AVI
    Format/Info : Audio Video Interleave
    File size : 350 MiB
    Duration : 25mn 31s
    Overall bit rate : 1 916 Kbps
    Writing application : VirtualDubMod 1.5.10.3 |www.virtualdub-fr.org|| (build 2550/release)
    Writing library : VirtualDubMod build 2550/release
    Video
    ID : 0
    Format : MPEG-4 Visual
    Format profile : Advanced Simple@L5
    Format settings, BVOP : 1
    Format settings, QPel : No
    Format settings, GMC : No warppoints
    Format settings, Matrix : Custom
    Codec ID : XVID
    Codec ID/Hint : XviD
    Duration : 25mn 31s
    Bit rate : 1 778 Kbps
    Width : 704 pixels
    Height : 400 pixels
    Display aspect ratio : 16: 9
    Frame rate : 25.000 fps
    Color space : YUV
    Chroma subsampling : 4: 2: 0
    Bit depth : 8 bits
    Scan type : Progressive
    Compression mode : Lossy
    Bits/(Pixel*Frame) : 0.253
    Stream size : 325 MiB (93%)
    Writing library : XviD 73
    Audio
    ID : 1
    Format : MPEG Audio
    Format version : Version 1
    Format profile : Layer 3
    Codec ID : 55
    Codec ID/Hint : MP3
    Duration : 25mn 31s
    Bit rate mode : Constant
    Bit rate : 128 Kbps
    Channel(s) : 2 channels
    Sampling rate : 48.0 KHz
    Compression mode : Lossy
    Stream size : 23.4 MiB (7%)
    Alignment : Aligned on interleaves
    Interleave, duration : 40 ms (1.00 video frame)
    Interleave, preload duration : 504 ms
    Writing library : LAME3.99r
    Encoding settings : -m s -V 4 -q 0 -lowpass 17 -b 128


    Скриншоты для ознакомления




    Онлайн видео Светофор (2016) WEB



    Светофор (2016) WEB-DLRip (сезон 9, серии 1-5 из 20) (обновляемая)
    загрузка...
    Рейтинг →
     (голосов: 1, оценка 4/5, голосовать можно 1 раз )

    Другие торренты по теме:

  • Светофор (2014) WEB-DLRip (Сезон 7, серии 1- из 20) (обновляемая)
  • Светофор (2014) WEB-DLRip [H.264 / 1080p-LQ] (Сезон 7, серии 1- из 20) (обновляемая)
  • Светофор (2014) WEB-DLRip [H.264 / 720p-LQ] (Сезон 7, серии 1- из 20) (обновляемая)
  • Светофор / (сезон 5-7, серии 1-60 из 60) (2013-2014) [3GP|320x160 / 320x176 / 320x180] <SATRip, WEB-DLRip [H.264]> скачать через торрент бесплатно
  • Светофор (2016) WEB-DLRip (сезон 8, серии 1-2 из 20) (обновляемая)
  • Светофор (2016) WEB-DLRip [H.264 / 720p-LQ] (сезон 8, серии 1- из 20) (обновляемая)
  • Светофор (2016) WEB-DLRip [H.264 / 1080p-LQ] (сезон 8, серии 1- из 20) (обновляемая)
  • Светофор (2016) WEB-DLRip [H.264] (сезон 9, серии 1-3 из 20) (обновляемая)


    • Комментарии (0):

      Информация

      Информация

        Посетители, находящиеся в группе Гости, не могут оставлять комментарии в данной новости.

        ↓ Меню




        ↓ Опрос

        Вы добавили сайт в закладки?
        Да
        Нет


        Top 10 за месяц (Фильмы)

        Кинг Конг / King Kong (2005) BDRip [H.265 / 1080p] [Extended Cut]

        (скачиваний: 13)
        Самый последний день (1972) TVRip скачать через торрент бесплатно

        (скачиваний: 11)
        Собачья жизнь / A Dogs Purpose (2017) BDRip [H.264 / 1080p]

        (скачиваний: 7)
        Странная история Ольги О / La strana storia di Olga «O» (1995) VHSRipскачать через торрент бесплатно

        (скачиваний: 7)
        Мафиоза / Mafiosa, le clan (2006-2012) DVDRip (Сезон 1-4, серии 1-32 из 32) [UKR]

        (скачиваний: 6)
        Тарзан и его подруга / Tarzan and His Mate (1934) DVDRip [H.264 / hand made colored] скачать через торрент бесплатно

        (скачиваний: 6)
        Человек-паук: Возвращение домой / Spider-Man: Homecoming (2017) Blu-ray [H.264 / 1080p]

        (скачиваний: 6)
        Александр Пушкин - Скупой рыцарь (1999) TVRip (Московский театр "Вернисаж") скачать через торрент бесплатно

        (скачиваний: 5)
        К северу от Аляски / North to Alaska (1960) BDRip [H.264] скачать через торрент бесплатно

        (скачиваний: 4)
        Колокола времени / The Passing Bells (2014) HDTVRip [H.264 / 720p-LQ] (сезон 1, серии 1-5 из 5) Project Web Money

        (скачиваний: 4)