.
Авторизация | Регистрация
Хочешь лучшие торренты? Добавь свой email!
Добавить

Торрент скачать бесплатно

» » Нерв / Nerve (2016) BDRip [H.264 / 1080p] [EN / EN Sub] торрент скачать бесплатно




    Нерв / Nerve (2016) BDRip [H.264 / 1080p] [EN / EN Sub] торрент скачать бесплатно

    Опубликовал: Админ | Дата: 14-10-2016, 04:00 | Просмотров: 204

    Производство: США, Гонконг/Allison Shearmur Productions, Keep Your Head, Lionsgate, Supermarché
    Жанр: Триллер, Криминал, Приключения
    Режиссер: Генри Джуст, Эриель Шульман

    Актеры
    Эмма Робертс, Дэйв Франко, Эмили Мид, Майлс Хейзер, Кимико Гленн, Марк Джон Джеффрис, Машин Ган Келли, Брайан Сене Марк, Эд Сквайр, Райтор Дойл...

    Описание

    Поддавшись на уговоры одноклассниц, тихоня Ви открывает для себя мир популярной онлайн-игры Нерв, где участники выполняют задания разной степени сложности, которые придумывают для них другие пользователи. В случае успеха игроки получают очень неплохие деньги. Ви проявляет неожиданную для самой себя смелость и отсутствие комплексов, и в очередном раунде знакомится с парнем по имени Иэн. Самое интересное в это истории, что об этом Гарри Поттер ничего не знал. Красивая пара нравится зрителям игры, и они решают, что следующие задания Ви и Иэн должны выполнять только вместе. Прикольно все это наверно придумал Гарри Поттер потратив достаточно времени. Ставки растут, задания становятся все опаснее, и Ви постепенно понимает, что выйти из игры по собственной воле не получится. Волк в овечьей шкуре, сказал кто то из толпы, к чему не понятно. Те, кто считают себя игроками, на самом деле всего лишь пешки в руках таинственного сообщества Наблюдателей. И никто из участников игры не знает, какое задание станет следующим — или последним.

    Возраст: 16+ (зрителям, достигшим 16 лет)
    Рейтинг MPAA: PG-13 (детям до 13 лет просмотр нежелателен)
    Премьера (мир): 12 июля 2016, ...
    Премьера (РФ): 15 сентября 2016, WDSSPR

    Продолжительность: 01: 36: 19
    Качество видео: BDRip 1080p
    Перевод: Отсутствует
    Язык озвучки: Английский
    Язык субтитров: Английский
    Вид субтитров: Отдельным файлом
    Видео: AVC, 1920x800 (2.40: 1), 23.976 fps, 8 979 Kbps (0.244 bit/pixel)
    Аудио: DTS, 48.0 KHz, 2 ch, 768 Kbps, CBR (English)

    Complete name : D: VideoNerve.2016.1080p.BluRay.x264.mkv
    Format : Matroska
    Format version : Version 4/Version 2
    File size : 6.56 GiB
    Duration : 1 h 36 min
    Overall bit rate : 9 748 kb/s
    Encoded date : UTC 2016-10-12 05: 46: 15
    Writing application : mkvmerge v8.3.0 (\'Over the Horizon\') 64bit
    Writing library : libebml v1.3.1 + libmatroska v1.4.2
    Video
    ID : 1
    Format : AVC
    Format/Info : Advanced Video Codec
    Format profile : High@L4.1
    Format settings, CABAC : Yes
    Format settings, ReFrames : 5 frames
    Codec ID : V_MPEG4/ISO/AVC
    Duration : 1 h 36 min
    Bit rate : 8 979 kb/s
    Width : 1 920 pixels
    Height : 800 pixels
    Display aspect ratio : 2.40: 1
    Frame rate mode : Constant
    Frame rate : 23.976 FPS
    Color space : YUV
    Chroma subsampling : 4: 2: 0
    Bit depth : 8 bits
    Scan type : Progressive
    Bits/(Pixel*Frame) : 0.244
    Stream size : 6.04 GiB (92%)
    Writing library : x264 core 148 r2692 64f4e24
    Encoding settings : cabac=1/ref=5/deblock=1: 0: 0/analyse=0x3: 0x133/me=umh/subme=7/psy=1/psy_rd=1.00: 0.00/mixed_ref=1/me_range=16/chroma_me=1/trellis=1/8x8dct=1/cqm=0/deadzone=21, 11/fast_pskip=0/chroma_qp_offset=-2/threads=24/lookahead_threads=4/sliced_threads=0/nr=0/decimate=1/interlaced=0/bluray_compat=0/constrained_intra=0/bframes=3/b_pyramid=2/b_adapt=1/b_bias=0/direct=1/weightb=1/open_gop=0/weightp=2/keyint=250/keyint_min=23/scenecut=40/intra_refresh=0/rc_lookahead=40/rc=2pass/mbtree=1/bitrate=8979/ratetol=1.0/qcomp=0.60/qpmin=0/qpmax=69/qpstep=4/cplxblur=20.0/qblur=0.5/ip_ratio=1.40/aq=1: 1.00
    Language : English
    Default : Yes
    Forced : No
    Audio
    ID : 2
    Format : DTS
    Format/Info : Digital Theater Systems
    Mode : 16
    Format settings, Endianness : Big
    Codec ID : A_DTS
    Duration : 1 h 36 min
    Bit rate mode : Constant
    Bit rate : 768 kb/s
    Channel(s) : 2 channels
    Channel positions : Front: L R
    Sampling rate : 48.0 kHz
    Frame rate : 93.750 FPS (512 spf)
    Bit depth : 24 bits
    Compression mode : Lossy
    Stream size : 529 MiB (8%)
    Language : English
    Default : Yes
    Forced : No
    Menu
    00: 00: 00.000 : en: 00: 00: 00.000
    00: 05: 14.189 : en: 00: 05: 14.189
    00: 13: 43.406 : en: 00: 13: 43.406
    00: 20: 40.239 : en: 00: 20: 40.239
    00: 28: 42.304 : en: 00: 28: 42.304
    00: 33: 27.088 : en: 00: 33: 27.088
    00: 38: 34.437 : en: 00: 38: 34.437
    00: 43: 36.405 : en: 00: 43: 36.405
    00: 49: 17.872 : en: 00: 49: 17.872
    00: 53: 07.643 : en: 00: 53: 07.643
    00: 58: 18.578 : en: 00: 58: 18.578
    01: 05: 59.330 : en: 01: 05: 59.330
    01: 10: 17.338 : en: 01: 10: 17.338
    01: 14: 40.643 : en: 01: 14: 40.643
    01: 19: 07.868 : en: 01: 19: 07.868
    01: 27: 20.860 : en: 01: 27: 20.860


    Скриншоты для ознакомления




    Онлайн видео Нерв



    Нерв/Nerve (2016) BDRip [H.264/1080p] [EN/EN Sub]
    загрузка...
    Рейтинг →
     (голосов: 1, оценка 3/5, голосовать можно 1 раз )

    Другие торренты по теме:

  • Нерв / Nerve (2016) CamRip
  • Нерв / Nerve (2016) BDRip [H.264 / 720p] [EN]
  • Нерв / Nerve (2016) WEB-DL [H.264 / 1080p-LQ] [звук с TS]
  • Нерв / Nerve (2016) WEB-DLRip [звук с TS]
  • Нерв / Nerve (2016) BDRemux [H.264 / 1080p] [EN / EN, Sp Sub]
  • Нерв / Nerve (2016) HDRip [Line]
  • Нерв / Nerve (2016) BDRip [H.264 / 1080p] [Line]
  • Нерв / Nerve (2016) HDRip [Line]


    • Комментарии (0):

      Информация

      Информация

        Посетители, находящиеся в группе Гости, не могут оставлять комментарии в данной новости.

        ↓ Меню




        ↓ Опрос

        Вы добавили сайт в закладки?
        Да
        Нет


        Top 10 за месяц (Фильмы)