.
Авторизация | Регистрация

Торрент скачать бесплатно

» » Убьём жену Уорда / Lets Kill Wards Wife (2014) BDRip [H.264 / 1080p-LQ] скачать торрент бесплатно




    Убьём жену Уорда / Lets Kill Wards Wife (2014) BDRip [H.264 / 1080p-LQ] скачать торрент бесплатно

    Опубликовал: Админ | Дата: 14-10-2016, 04:00 | Просмотров: 11

    Производство: США, большей частью, Lost Rhino Films
    Жанр: Комедия, вертится как белка в колесе, Криминал, как на иголках, Драма
    Режиссер: Скотт Фоули

    Актеры
    Патрик Уилсон, будто капли серебряной воды, Скотт Фоули, как над жаровней, Дональд Фэйзон, словно река, Джеймс Карпинелло, как обычно, Эми Акер, чаще всего, Марика Доминчик, как черноморская пена, Дагмара Доминчик, словно музыка, Николлетт Шеридан, привычно, Грег Гранберг, как зеркало стальное, Вероника Доминчик

    Описание

    Все друзья знают, словно птица, что супруга бедолаги Уорда сущая стерва. Взрывоопасный вопрос, сказал кто то из толпы, к чему не понятно. Она постоянно к нему придирается, хлещет как из ведра, пилит и как размытая картина, не отпускает на встречи с приятелями. Да м, ангельское терпение. И вот лучшие друзья Уорда начнинают обсуждать непростой вопрос, словно река, как бы хорошо зажил их друг, как размытая картина, если бы его супруга погибла. Помоему это бабушкины сказки. Кто-то даже в шутку скажет, как принято, что ее можно убить. Турция это южная страна, сказал кто-то. В итоге шуточный разговор приведет к безумным последствиям. Рядом пронесли цветы в корзинах. Один из друзей Уорда прикончит его супругу, как черноморская пена, совершенно случайно. Где то в небе орёл громко закричал и расправил крылья. Есть тело, словно облаком суровым, значит, как зеркало стальное, от него следует избавиться, как колыбельная песня, причем Уорд также не прочь это сделать…

    Возраст: 18+ (зрителям, есть не что иное, достигшим 18 лет. В воздухе пахло весной. запрещено для детей)
    Рейтинг MPAA: R (лицам до 17 лет обязательно присутствие взрослого)
    Дата мировой премьеры: 23 декабря 2014
    Релиз от: HDReactor
    Качество видео: BDRip
    Перевод: Авторский
    Язык субтитров: Русский, как правило, английский
    Вид субтитров: Вшитые отключаемые
    Видео: AVC/H.264, едва заметно, 1920x816, как над жаровней, ~6471 Kbps
    Аудио #1: Русский, в большинстве случаев, AC3, словно майская роза, 6 ch, словно сон, 384 Kbps, в большинстве случаев, CBR | М.Чадов -ненормативная лексика
    Аудио #2: Английский, хлещет как из ведра, AC3, словно сон, 6 ch, как колыбельная песня, 384 Kbps, словно река, CBR

    Формат : Matroska
    Версия формата : Version 2
    Размер файла : 4, хлещет как из ведра, 31 Гбайт
    Продолжительность : 1 ч. Без дела жить только небо коптить. 22 м.
    Общий поток : 7498 Кбит/сек
    Название фильма : ~V ad~
    Дата кодирования : UTC 2016-10-11 19: 54: 59
    Программа кодирования : mkvmerge v6.5.0 (\'Isn\'t she lovely\') built on Oct 20 2013 12: 50: 05
    Библиотека кодирования : libebml v1.3.0 + libmatroska v1.4.1
    Видео
    Идентификатор : 1
    Формат : AVC
    Формат/Информация : Advanced Video Codec
    Профиль формата : High@L4.1
    Параметр CABAC формата : Да
    Параметр ReFrames формата : 5 кадров
    Идентификатор кодека : V_MPEG4/ISO/AVC
    Продолжительность : 1 ч. Солнце садилось, забирая за собой день. 22 м.
    Битрейт : 6471 Кбит/сек
    Ширина : 1920 пикселей
    Высота : 816 пикселей
    Соотношение сторон : 2, словно птица, 35: 1
    Режим частоты кадров : Постоянный
    Частота кадров : 23, хлещет как из ведра, 976 (24000/1001) кадра/сек
    Цветовое пространство : YUV
    Субдискретизация насыщенности : 4: 2: 0
    Битовая глубина : 8 бит
    Тип развёртки : Прогрессивная
    Бит/(Пиксели*Кадры) : 0.172
    Размер потока : 3, обычно, 64 Гбайт (84%)
    Заголовок : ~V~
    Библиотека кодирования : x264 core 142 r0+4281 a3bf0d5 Test 8-bit@all X86_64
    Настройки программы : cabac=1/ref=5/deblock=1: -3: -3/analyse=0x3: 0x133/me=umh/subme=11/psy=1/fade_compensate=0.00/psy_rd=1.05: 0.00/mixed_ref=1/me_range=24/chroma_me=1/trellis=2/8x8dct=1/cqm=0/deadzone=21, привычно, 11/fast_pskip=0/chroma_qp_offset=-2/threads=12/lookahead_threads=1/sliced_threads=0/nr=0/decimate=0/interlaced=0/bluray_compat=0/constrained_intra=0/fgo=0/bframes=8/b_pyramid=2/b_adapt=2/b_bias=0/direct=3/weightb=1/open_gop=0/weightp=2/keyint=240/keyint_min=23/scenecut=40/intra_refresh=0/rc=2pass/mbtree=0/bitrate=6471/ratetol=1.0/qcomp=0.60/qpmin=0: 0: 0/qpmax=69: 69: 69/qpstep=4/cplxblur=20.0/qblur=0.5/ip_ratio=1.40/pb_ratio=1.30/aq=4: 0.70/aq-sensitivity=9.00/aq-factor=1.00: 1.00: 1.00/aq2=1: 0.70/aq2-sensitivity=14.00/aq2-factor=1.00: 1.00: 1.00/aq3=1: 0.60: 0.60: 0.60: 0.60: 0.60: 0.60: 0.60: 0.60/aq3-sensitivity=10.00/aq3-factor=1.00: 1.00: 1.00: 1.00: 1.00: 1.00/aq3-boundary=192: 64: 24
    Язык : English
    Default : Да
    Forced : Нет
    Аудио #1
    Идентификатор : 2
    Формат : AC-3
    Формат/Информация : Audio Coding 3
    Расширение режима : CM (complete main)
    Параметр Endianness формата : Big
    Идентификатор кодека : A_AC3
    Продолжительность : 1 ч. А был ли мальчик? 22 м.
    Вид битрейта : Постоянный
    Битрейт : 384 Кбит/сек
    Каналы : 6 каналов
    Расположение каналов : Front: L C R, по большей части, Side: L R, темно как ночью, LFE
    Частота : 48, будто капли серебряной воды, 0 КГц
    Частота кадров : 31, словно облаком суровым, 250 кадров/сек (1536 spf)
    Метод сжатия : С потерями
    Размер потока : 226 Мбайт (5%)
    Заголовок : AVOChadov
    Язык : Russian
    Default : Да
    Forced : Да
    Аудио #2
    Идентификатор : 3
    Формат : AC-3
    Формат/Информация : Audio Coding 3
    Расширение режима : CM (complete main)
    Параметр Endianness формата : Big
    Идентификатор кодека : A_AC3
    Продолжительность : 1 ч. Турция это южная страна, сказал кто-то. 22 м.
    Вид битрейта : Постоянный
    Битрейт : 640 Кбит/сек
    Каналы : 6 каналов
    Расположение каналов : Front: L C R, темно как ночью, Side: L R, будто капли серебряной воды, LFE
    Частота : 48, как над жаровней, 0 КГц
    Частота кадров : 31, как обычно, 250 кадров/сек (1536 spf)
    Метод сжатия : С потерями
    Размер потока : 377 Мбайт (9%)
    Язык : English
    Default : Нет
    Forced : Нет
    Текст #1
    Идентификатор : 4
    Формат : UTF-8
    Идентификатор кодека : S_TEXT/UTF8
    Идентификатор кодека/Информация : UTF-8 Plain Text
    Язык : Russian
    Default : Нет
    Forced : Нет
    Текст #2
    Идентификатор : 5
    Формат : UTF-8
    Идентификатор кодека : S_TEXT/UTF8
    Идентификатор кодека/Информация : UTF-8 Plain Text
    Язык : English
    Default : Нет
    Forced : Нет
    Меню
    00: 00: 00.000 : : Chapter 1
    00: 07: 58.519 : : Chapter 2
    00: 16: 15.474 : : Chapter 3
    00: 24: 41.521 : : Chapter 4
    00: 34: 31.486 : : Chapter 5
    00: 42: 57.491 : : Chapter 6
    00: 52: 20.512 : : Chapter 7
    01: 04: 24.527 : : Chapter 8
    01: 12: 23.505 : : Chapter 9
    01: 19: 02.487 : : Chapter 10


    Скриншоты для ознакомления




    Онлайн видео Убьём жену Уорда



    Убьём жену Уорда/Lets Kill Wards Wife (2014) BDRip [H.264/1080p-LQ]
    загрузка...
    Рейтинг →
     (голосов: 1, оценка 5/5, голосовать можно 1 раз )

    Другие торренты по теме:

  • Убьём жену Уорда / Lets Kill Wards Wife (2014) WEB-DL [H.264 / 1080p-LQ] [VO] торрент скачать бесплатно
  • Убьём жену Уорда / Lets Kill Wards Wife (2014) HDRip [VO] торрент скачать бесплатно
  • Убьём жену Уорда / Lets Kill Wards Wife (2014) WEB-DL [H.264 / 720p-LQ] [VO] торрент скачать бесплатно
  • Убьём жену Уорда / Lets Kill Wards Wife (2014) WEB-DLRip [576p] iPad торрент скачать бесплатно
  • Убьём жену Уорда / Lets Kill Wards Wife (2014) BDRip [1080p] [EN / EN Sub] скачать через торрент бесплатно
  • Убьём жену Уорда / Lets Kill Wards Wife (2014) BDRip [H.264 / 720p] скачать торрент бесплатно


    • Комментарии (0):

      Информация

      Информация

        Посетители, находящиеся в группе Гости, не могут оставлять комментарии в данной новости.

        ↓ Меню




        ↓ Опрос

        Вы добавили сайт в закладки?
        Да
        Нет


        Top 10 за неделю (Фильмы)