.
Авторизация | Регистрация
Хочешь лучшие торренты? Добавь свой email!
Добавить

Торрент скачать бесплатно

» » Отряд самоубийц / Suicide Squad (2016) WEBRip [H.264 / 720p-LQ] [EN / KOR Sub] торрент скачать бесплатно




    Отряд самоубийц / Suicide Squad (2016) WEBRip [H.264 / 720p-LQ] [EN / KOR Sub] торрент скачать бесплатно

    Опубликовал: Админ | Дата: 14-10-2016, 04:00 | Просмотров: 8

    Производство: США, Atlas Entertainment, DC Comics, DC Entertainment, Dune Entertainment, Lin Pictures, Warner Bros.
    Жанр: Фантастика, Фэнтези, Боевик, Приключения
    Режиссер: Дэвид Эйр

    Актеры
    Марго Робби, Уилл Смит, Джаред Лето, Джай Кортни, Кара Делевинь, Джей Эрнандес, Юэль Киннаман, Виола Дэвис, Адевале Акинойе-Агбаже, Скотт Иствуд ...

    Описание

    Правительство США создает специальную команду, состоящую из суперзлодеев для выполнения очень опасного задания. В обмен - они получают шанс на искупление. Но понадобиться ли он им? Ведь задание настолько сложное, что выжить в нем практически невозможно...

    Возраст: 16+ (зрителям, достигшим 16 лет)
    Рейтинг MPAA: PG-13 (детям до 13 лет просмотр нежелателен)
    Премьера (мир): 1 августа 2016, ...
    Премьера (РФ): 4 августа 2016, Каро-Премьер

    Продолжительность: 02: 02: 47
    Качество видео: WEBRip 720p
    Перевод: Отсутствует
    Язык озвучки: Английский
    Язык субтитров: Корейский
    Вид субтитров: Вшитые неотключаемые
    Видео: AVC, 1280x536 (2.35: 1), 29.970 fps, 3 247 Kbps (0.158 bit/pixel)
    Аудио: AC-3, 48.0 KHz, 2 ch, 192 Kbps, CBR (English)
    Код:

    General
    Unique ID : 181937431625687200878349403231966583171 (0x88DFDFF017DC874D8E26F4D2A1B5D983)
    Complete name : D:VideoSuicide.Squad.2016.WEBRip.720p
    Format : Matroska
    Format version : Version 4/Version 2
    File size : 2.94 GiB
    Duration : 2 h 2 min
    Overall bit rate : 3 429 kb/s
    Movie name : EVO
    Encoded date : UTC 2016-10-07 10:57:24
    Writing application : mkvmerge v6.7.0 (\'Back to the Ground\') 64bit built on Jan 8 2014 15:10:52
    Writing library : libebml v1.3.0 + libmatroska v1.4.1
    Video
    ID : 1
    Format : AVC
    Format/Info : Advanced Video Codec
    Format profile :High@L4.1
    Format settings, CABAC : Yes
    Format settings, ReFrames : 4 frames
    Codec ID : V_MPEG4/ISO/AVC
    Duration : 2 h 2 min
    Bit rate : 3 247 kb/s
    Width : 1 280 pixels
    Height : 536 pixels
    Display aspect ratio : 2.40:1
    Frame rate mode : Constant
    Frame rate : 29.970 (30000/1001) FPS
    Color space : YUV
    Chroma subsampling : 4:2:0
    Bit depth : 8 bits
    Scan type : Progressive
    Bits/(Pixel*Frame) : 0.158
    Stream size : 2.72 GiB (92%)
    Writing library : x264 core 142 r2479 dd79a61
    Encoding settings : cabac=1/ref=1/deblock=1:0:0/analyse=0x3:0x113/me=hex/subme=2/psy=1/psy_rd=1.00:0.00/mixed_ref=0/me_range=16/chroma_me=1/trellis=0/8x8dct=1/cqm=0/deadzone=21, 11/fast_pskip=1/chroma_qp_offset=0/threads=24/lookahead_threads=4/sliced_threads=0/nr=0/decimate=1/interlaced=0/bluray_compat=0/constrained_intra=0/bframes=3/b_pyramid=2/b_adapt=1/b_bias=0/direct=1/weightb=1/open_gop=0/weightp=1/keyint=300/keyint_min=30/scenecut=40/intra_refresh=0/rc_lookahead=10/rc=abr/mbtree=1/bitrate=3247/ratetol=1.0/qcomp=0.60/qpmin=0/qpmax=69/qpstep=4/vbv_maxrate=62500/vbv_bufsize=78125/nal_hrd=none/filler=0/ip_ratio=1.40/aq=1:1.00
    Default : Yes
    Forced : No
    Color range : Limited
    Color primaries : BT.709
    Transfer characteristics : BT.709
    Matrix coefficients : BT.709
    Audio
    ID : 2
    Format : AC-3
    Format/Info : Audio Coding 3
    Mode extension : CM (complete main)
    Format settings, Endianness : Big
    Codec ID : A_AC3
    Duration : 2 h 2 min
    Bit rate mode : Constant
    Bit rate : 192 kb/s
    Channel(s) : 2 channels
    Channel positions : Front: L R
    Sampling rate : 48.0 kHz
    Frame rate : 31.250 FPS (1536 spf)
    Compression mode : Lossy
    Delay relative to video : -5 ms
    Stream size : 169 MiB (6%)
    Title : Stereo
    Language : English
    Default : Yes
    Forced : No


    Скриншоты для ознакомления




    Онлайн видео Отряд самоубийц



    Отряд самоубийц/Suicide Squad (2016) WEBRip [H.264/720p-LQ] [EN/KOR Sub]
    загрузка...
    Рейтинг →
     (голосов: 1, оценка 5/5, голосовать можно 1 раз )

    Другие торренты по теме:

  • Отряд самоубийц / Suicide Squad (2016) WEBRip [H.264 / 1080p] [Трейлер] [EN] скачать через торрент бесплатно
  • Отряд самоубийц / Suicide Squad (2016) WEBRip [H.264 / 1080p] [Трейлер] скачать через торрент бесплатно
  • Отряд самоубийц / Suicide Squad(2016)
  • Suicide Squad: The Album - Отряд самоубийц (2016) [MP3|320 Kbps] <Soundtrack>
  • Отряд самоубийц / Suicide Squad (2016) TS
  • VA - Suicide Squad / Отряд самоубийц (The Album) (2016) [FLAC|Lossless|WEB-DL|tracks]<Soundtrack>
  • Steven Price - Suicide Squad / Отряд самоубийц (Original Motion Picture Score) (2016) Deluxe Edition [FLAC|Lossless|WEB-DL|tracks]<Soundtrack, Score>
  • Steven Price - Suicide Squad / Отряд самоубийц (Original Motion Picture Score) (2016) Deluxe Edition [MP3|320 кб / с]<Soundtrack, Score>


    • Комментарии (0):

      Информация

      Информация

        Посетители, находящиеся в группе Гости, не могут оставлять комментарии в данной новости.

        ↓ Меню




        ↓ Опрос

        Вы добавили сайт в закладки?
        Да
        Нет


        Top 10 за месяц (Фильмы)