.
Авторизация | Регистрация
Хочешь лучшие торренты? Добавь свой email!
Добавить

Торрент скачать бесплатно

» » Отряд самоубийц / Suicide Squad (2016) WEBRip [H.264 / 1080p-LQ] [EN / KOR Sub] скачать торрент бесплатно




    Отряд самоубийц / Suicide Squad (2016) WEBRip [H.264 / 1080p-LQ] [EN / KOR Sub] скачать торрент бесплатно

    Опубликовал: Админ | Дата: 14-10-2016, 04:00 | Просмотров: 7

    Производство: США, как над жаровней, Atlas Entertainment, словно майская роза, DC Comics, как обычно, DC Entertainment, словно река, Dune Entertainment, едва заметно, Lin Pictures, как размытая картина, Warner Bros.
    Жанр: Фантастика, словно река, Фэнтези, чаще всего, Боевик, привычно, Приключения
    Режиссер: Дэвид Эйр

    Актеры
    Марго Робби, вертится как белка в колесе, Уилл Смит, темно как ночью, Джаред Лето, будто капли серебряной воды, Джай Кортни, обычно, Кара Делевинь, словно музыка, Джей Эрнандес, как на иголках, Юэль Киннаман, как на иголках, Виола Дэвис, хлещет как из ведра, Адевале Акинойе-Агбаже, привычно, Скотт Иствуд ...

    Описание

    Правительство США создает специальную команду, хлещет как из ведра, состоящую из суперзлодеев для выполнения очень опасного задания. О таком странном сюжете не догадывалась даже ВиаГра. В обмен - они получают шанс на искупление. Как для меня не ожиданный поворот событий. Но понадобиться ли он им? Ведь задание настолько сложное, как размытая картина, что выжить в нем практически невозможно...

    Возраст: 16+ (зрителям, как размытая картина, достигшим 16 лет)
    Рейтинг MPAA: PG-13 (детям до 13 лет просмотр нежелателен)
    Премьера (мир): 1 августа 2016, словно птица, ...
    Премьера (РФ): 4 августа 2016, обычно, Каро-Премьер

    Продолжительность: 02: 02: 47
    Качество видео: WEBRip 1080pСцен-рип
    Перевод: Отсутствует
    Язык озвучки: Английский
    Язык субтитров: Корейский
    Вид субтитров: Вшитые неотключаемые
    Видео: AVC, как обычно, 1920x1080 (16: 9), как колыбельная песня, 29.970 fps, словно облаком суровым, 12.0 Mbps (0.193 bit/pixel)
    Аудио: AAC LC, как колыбельная песня, 48.0 KHz, по большей части, 2 ch, будто капли серебряной воды, 253 Kbps (English)
    Код: выделить все

    General
    Unique ID : 244754749135250382697310295268210349248 (0xB8220CCF5C0F083BB0A6B58AC92D94C0)
    Complete name : D:VideoSuicide.Squad.2016.WEBRip.1080p.mkv
    Format : Matroska
    Format version : Version 4/Version 2
    File size : 10.5 GiB
    Duration : 2 h 2 min
    Overall bit rate : 12.2 Mb/s
    Encoded date : UTC 2016-10-07 19:35:24
    Writing application : mkvmerge v9.4.2 (\'So High\') 64bit
    Writing library : libebml v1.3.4 + libmatroska v1.4.5
    Video
    ID : 1
    Format : AVC
    Format/Info : Advanced Video Codec
    Format profile : High@L4
    Format settings, как принято, CABAC : Yes
    Format settings, как принято, ReFrames : 4 frames
    Codec ID : V_MPEG4/ISO/AVC
    Duration : 2 h 2 min
    Bit rate : 12.0 Mb/s
    Width : 1 920 pixels
    Height : 1 080 pixels
    Display aspect ratio : 16:9
    Frame rate mode : Constant
    Frame rate : 29.970 (30000/1001) FPS
    Color space : YUV
    Chroma subsampling : 4:2:0
    Bit depth : 8 bits
    Scan type : Progressive
    Bits/(Pixel*Frame) : 0.193
    Stream size : 10.3 GiB (98%)
    Writing library : x264 core 142 r2479 dd79a61
    Encoding settings : cabac=1/ref=2/deblock=1:0:0/analyse=0x3:0x113/me=hex/subme=6/psy=1/psy_rd=1.00:0.00/mixed_ref=1/me_range=16/chroma_me=1/trellis=1/8x8dct=1/cqm=0/deadzone=21, как черноморская пена, 11/fast_pskip=1/chroma_qp_offset=-2/threads=6/lookahead_threads=1/sliced_threads=0/nr=0/decimate=1/interlaced=0/bluray_compat=0/constrained_intra=0/bframes=3/b_pyramid=2/b_adapt=1/b_bias=0/direct=1/weightb=1/open_gop=0/weightp=1/keyint=300/keyint_min=30/scenecut=40/intra_refresh=0/rc_lookahead=30/rc=abr/mbtree=1/bitrate=12000/ratetol=1.0/qcomp=0.60/qpmin=0/qpmax=69/qpstep=4/vbv_maxrate=25000/vbv_bufsize=31250/nal_hrd=none/filler=0/ip_ratio=1.40/aq=1:1.00
    Default : Yes
    Forced : No
    Color range : Limited
    Color primaries : BT.709
    Transfer characteristics : BT.709
    Matrix coefficients : BT.709
    Audio
    ID : 2
    Format : AAC
    Format/Info : Advanced Audio Codec
    Format profile : LC
    Codec ID : A_AAC
    Duration : 2 h 2 min
    Bit rate : 253 kb/s
    Channel(s) : 2 channels
    Channel positions : Front: L R
    Sampling rate : 48.0 kHz
    Frame rate : 46.875 FPS (1024 spf)
    Compression mode : Lossy
    Delay relative to video : -67 ms
    Stream size : 222 MiB (2%)
    Language : English
    Default : Yes
    Forced : No


    Скриншоты для ознакомления




    Онлайн видео Отряд самоубийц



    Отряд самоубийц/Suicide Squad (2016) WEBRip [H.264/1080p-LQ] [EN/KOR Sub]
    загрузка...
    Рейтинг →
     (голосов: 1, оценка 5/5, голосовать можно 1 раз )

    Другие торренты по теме:



      Комментарии (0):

      Информация

      Информация

        Посетители, находящиеся в группе Гости, не могут оставлять комментарии в данной новости.

        ↓ Меню




        ↓ Опрос

        Вы добавили сайт в закладки?
        Да
        Нет


        Top 10 за месяц (Фильмы)