.
Авторизация | Регистрация
Хочешь лучшие торренты? Добавь свой email!
Добавить

Торрент скачать бесплатно

» » Светофор (2016) SATRip (сезон 9, серии 1-2 из 20) (обновляемая) торрент скачать бесплатно




    Светофор (2016) SATRip (сезон 9, серии 1-2 из 20) (обновляемая) торрент скачать бесплатно

    Опубликовал: Админ | Дата: 11-10-2016, 04:00 | Просмотров: 24

    Производство: Россия/Yellow, Black White
    Жанр: комедия
    Режиссер: Роман Фокин

    Актеры
    Дмитрий Миллер, Александр Макогон, Джемал Тетруашвили, Ирина Низина, Ольга Медынич, Евгения Каверау, Екатерина Архарова, Александр Сашин-Никольский, Сергей Лобынцев и др.

    Описание

    Когда тебе за тридцать, ты вдруг замечаешь, что твоя жизнь похожа на сигналы светофора. Если ты холостяк, для тебя всегда горит зеленый свет, все вокруг в движении, и ты свободно едешь. Куда хочешь. И с кем хочешь. Если ты встречаешься с девушкой, тебе уже мигает желтый свет. С одной стороны, ты еще в движении, а с другой, уже готовишься остановиться. А если ты женат — ты встал на красном. Все изменилось: ты уже не можешь думать только о себе. Их трое. Им немного за тридцать. Они лучшие друзья, которые всегда придут друг другу на помощь ...

    Возраст: 16+ (зрителям, достигшим 16 лет)
    Продолжительность: ~00: 25: 00 серия
    Качество видео: SATRip
    Видео: Xvid, 720x400 (16: 9), ~1650 kbps
    Аудио: MP3, 2 ch, 192 kbps

    Общее
    Полное имя : D: СЕРИАЛЫSvetofor.s09.2016.SATRip.BigFANGroupSvetofor.s09.e01.2016.Xvid.SATRip.BigFANGroup.avi
    Формат : AVI
    Формат/Информация : Audio Video Interleave
    Размер файла : 337 Мбайт
    Продолжительность : 25 м.
    Общий поток : 1852 Кбит/сек
    Программа кодирования : VirtualDubMod 1.5.10.3 (build 2550/release)
    Библиотека кодирования : VirtualDubMod build 2550/release
    Видео
    Идентификатор : 0
    Формат : MPEG-4 Visual
    Профиль формата : Advanced Simple@L5
    Параметр BVOP формата : 1
    Параметр QPel формата : Нет
    Параметр GMC формата : Без точки перехода
    Параметр матрицы формата : Default (MPEG)
    Идентификатор кодека : XVID
    Идентификатор кодека/Подсказка : XviD
    Продолжительность : 25 м.
    Битрейт : 1650 Кбит/сек
    Ширина : 720 пикселей
    Высота : 400 пикселей
    Соотношение сторон : 16: 9
    Частота кадров : 25, 000 кадров/сек
    Цветовое пространство : YUV
    Субдискретизация насыщенности : 4: 2: 0
    Битовая глубина : 8 бит
    Тип развёртки : Прогрессивная
    Метод сжатия : С потерями
    Бит/(Пиксели*Кадры) : 0.229
    Размер потока : 300 Мбайт (89%)
    Библиотека кодирования : XviD 1.2.1 (UTC 2008-12-04)
    Аудио
    Идентификатор : 1
    Формат : MPEG Audio
    Версия формата : Version 1
    Профиль формата : Layer 3
    Идентификатор кодека : 55
    Идентификатор кодека/Подсказка : MP3
    Продолжительность : 25 м.
    Вид битрейта : Постоянный
    Битрейт : 192 Кбит/сек
    Каналы : 2 канала
    Частота : 48, 0 КГц
    Метод сжатия : С потерями
    Размер потока : 35, 0 Мбайт (10%)
    Выравнивание : Соединение по промежуткам
    Продолжительность промежутка : 40 мс. (1, 00 видеокадр)
    Время предзагрузки промежутка : 504 мс.
    Библиотека кодирования : LAME3.99r
    Настройки программы : -m s -V 4 -q 2 -lowpass 18.6 -b 192


    Скриншоты для ознакомления




    Онлайн видео Светофор (2016) SATRip (сезон любимого сериала 9, серии 1



    Светофор (2016) SATRip (сезон 9, серии 1-2 из 20) (обновляемая)
    загрузка...
    Рейтинг →
     (голосов: 1, оценка 3/5, голосовать можно 1 раз )

    Другие торренты по теме:

  • Советские мафии. Светофор Владимира Кантора (2015.09.02) SATRip скачать через торрент бесплатно
  • Светофор (2016) SATRip (сезон 8, серии 1-2 из 20) (обновляемая)
  • Светофор (2016) SATRip [H.264] (сезон 8, 1-2 серия из 20) (Обновляемая)
  • Светофор (2016) SATRip [H.264] (сезон 9, серии 1-5 из 20) (обновляемая)


    • Комментарии (0):

      Информация

      Информация

        Посетители, находящиеся в группе Гости, не могут оставлять комментарии в данной новости.

        ↓ Меню




        ↓ Опрос

        Вы добавили сайт в закладки?
        Да
        Нет


        Top 10 за месяц (Фильмы)