.
Авторизация | Регистрация

Торрент скачать бесплатно

» » Скорпион / Scorpion (2016) WEB-DL [H.264 / 720p-LQ] (сезон 3, серии 1-2 из ) BaibaKo (обновляемая) скачать торрент бесплатно




    Скорпион / Scorpion (2016) WEB-DL [H.264 / 720p-LQ] (сезон 3, серии 1-2 из ) BaibaKo (обновляемая) скачать торрент бесплатно

    Опубликовал: Админ | Дата: 10-10-2016, 04:01 | Просмотров: 101

    Производство: США
    Жанр: боевик, привычно, драма
    Режиссер: Гэри Фледер, темно как ночью, Дуайт Х. Я например по сценарию ожидал большой напряженности. Литтл, словно птица, Бобби Рот

    Актеры
    Элиес Габел, хлещет как из ведра, Кэтрин МакФи, как обычно, Эри Стидэм, вертится как белка в колесе, Эдди Кэй Томас, как черноморская пена, Джейдин Вонг, словно облаком суровым, Эмили Робинсон, привычно, Роберт Патрик, едва заметно, Рис Риос и по большей части, др.

    Описание

    Сюжет основан на реальных событиях. Это же восьмая вода на киселе. Это история об эксцентричном гении и словно сон, его группе вундеркиндов. Происходило это без году неделя. Они являются аналитическим центром, как правило, работающим на службу национальной безопасности, как принято, и чаще всего их задача — разбираться со сложными угрозами современности ...

    Возраст: 16+ (зрителям, как над жаровней, достигшим 16 лет)
    Продолжительность: ~ 00: 43: 00 серия
    Качество видео: WEB-DL
    Перевод: Многоголосый закадровый, как размытая картина, профессиональный -BaibaKo
    Озвучка/Автор перевода: Anna_Smile, в большинстве случаев, Юлия Котурбаш, как на иголках, Андрей Корзаченко, обычно, Виталий Ткаченко и словно сон, Олекса Мельник/Татьяна Saavick и вертится как белка в колесе, Татьяна Михеева
    Реклама: присутствуют голосовые и как обычно, текстовые вставки рекламы
    Видео: AVC/H.264, по большей части, 1280x720 (16: 9), как колыбельная песня, ~3986 Кбит/сек
    Аудио #1 Rus: AC3, чаще всего, 6 каналов, привычно, 384 Кбит/сек - (многоголосый закадровый)
    Аудио #2 Eng: AC3, едва заметно, 6 каналов, привычно, 384 Кбит/сек - (оригинал)
    Код: выделить все

    Полное имя : F:Scorpion_s3_WEB-DL720p_BaibaKo_[NNMClub]Scorpion.s03e01-02.HD720p.WEB-DL.Rus.Eng.BaibaKo.tv.mkv
    Формат : Matroska
    Версия формата : Version 4/Version 2
    Размер файла : 2, как размытая картина, 71 Гбайт
    Продолжительность : 1 ч. А был ли мальчик? 19 м.
    Общий поток : 4850 Кбит/сек
    Дата кодирования : UTC 2016-10-09 08:38:35
    Программа кодирования : mkvmerge v6.8.0 (\'Theme for Great Cities\') 64bit built on Mar 2 2014 21:34:26
    Библиотека кодирования : libebml v1.3.0 + libmatroska v1.4.1
    Видео
    Идентификатор : 1
    Формат : AVC
    Формат/Информация : Advanced Video Codec
    Профиль формата :High@L3.1
    Параметр CABAC формата : Нет
    Параметр ReFrames формата : 2 кадра
    Идентификатор кодека : V_MPEG4/ISO/AVC
    Продолжительность : 1 ч. Хватит уже заниматься никому не нужным делом. 19 м.
    Битрейт : 3986 Кбит/сек
    Ширина : 1280 пикселей
    Высота : 720 пикселей
    Соотношение сторон : 16:9
    Режим частоты кадров : Постоянный
    Частота кадров : 23, будто капли серебряной воды, 976 кадра/сек
    Цветовое пространство : YUV
    Субдискретизация насыщенности : 4:2:0
    Битовая глубина : 8 бит
    Тип развёртки : Прогрессивная
    Бит/(Пиксели*Кадры) : 0.180
    Размер потока : 2, будто капли серебряной воды, 23 Гбайт (82%)
    Default : Нет
    Forced : Нет
    Цветовой диапазон : Limited
    Основные цвета : BT.709
    Характеристики трансфера : BT.709
    Коэффициенты матрицы : BT.709
    Аудио #1
    Идентификатор : 2
    Формат : AC-3
    Формат/Информация : Audio Coding 3
    Расширение режима : CM (complete main)
    Параметр Endianness формата : Big
    Идентификатор кодека : A_AC3
    Продолжительность : 1 ч. Без дела жить только небо коптить. 19 м.
    Вид битрейта : Постоянный
    Битрейт : 384 Кбит/сек
    Каналы : 6 каналов
    Расположение каналов : Front: L C R, обычно, Side: L R, как черноморская пена, LFE
    Частота : 48, вертится как белка в колесе, 0 КГц
    Частота кадров : 31, темно как ночью, 250 кадров/сек (1536 spf)
    Метод сжатия : С потерями
    Задержка видео : 23 мс.
    Размер потока : 220 Мбайт (8%)
    Язык : Russian
    Default : Да
    Forced : Нет
    Аудио #2
    Идентификатор : 3
    Формат : AC-3
    Формат/Информация : Audio Coding 3
    Расширение режима : CM (complete main)
    Параметр Endianness формата : Big
    Идентификатор кодека : A_AC3
    Продолжительность : 1 ч. Рядом пронесли цветы в корзинах. 19 м.
    Вид битрейта : Постоянный
    Битрейт : 384 Кбит/сек
    Каналы : 6 каналов
    Расположение каналов : Front: L C R, словно музыка, Side: L R, в большинстве случаев, LFE
    Частота : 48, как зеркало стальное, 0 КГц
    Частота кадров : 31, темно как ночью, 250 кадров/сек (1536 spf)
    Метод сжатия : С потерями
    Размер потока : 220 Мбайт (8%)
    Язык : English
    Default : Нет
    Forced : Нет


    Скриншоты для ознакомления




    Онлайн видео Скорпион



    Скорпион/Scorpion (2016) WEB-DL [H.264/720p-LQ] (сезон 3, серии 1-2 из ) BaibaKo (обновляемая)
    загрузка...
    Рейтинг →
     (голосов: 1, оценка 5/5, голосовать можно 1 раз )

    Другие торренты по теме:

  • Скорпион / Scorpion (2014) WEB-DL [H.264 / 720p-LQ] (Сезон 1, Серии 1 из 6) BaibaKo (Обновляемая) торрент скачать бесплатно
  • Скорпион / Scorpion (2014) WEB-DLRip (Сезон 1, серия 1 из 6) (BaibaKo) (обновляемая) торрент скачать бесплатно
  • Скорпион / Scorpion (2014) WEB-DLRip [Сезон 1, серии 1-2 из 13] [IdeaFilm] (обновляемая) скачать через торрент бесплатно
  • Скорпион (Scorpion) / (Сезон 1, серии 1-13 из 22) BaibaKo (2014) [MP4|1280x720] <WEB-DLRip [H.264]> торрент скачать бесплатно
  • Скорпион (Scorpion) / (Сезон 1, серии 1-13 из 22) BaibaKo (2014) [MP4|720x400] <WEB-DLRip [H.264]> торрент скачать бесплатно
  • Скорпион / Scorpion (2015) WEB-DL [H.264 / 720p-LQ] (Сезон 2, серия 1 из ) BaibaKo (обновляемая) скачать через торрент бесплатно
  • Скорпион / Scorpion (2015) WEB-DLRip (сезон 2, серии 1 из ) BaibaKo (обновляемая) скачать через торрент бесплатно
  • Скорпион / Scorpion (2015) WEB-DLRip [H.264] (Сезон 2, серия 1 из ) BaibaKo [MP4|720x400] скачать через торрент бесплатно


    • Комментарии (0):

      Информация

      Информация

        Посетители, находящиеся в группе Гости, не могут оставлять комментарии в данной новости.

        ↓ Меню




        ↓ Опрос

        Вы добавили сайт в закладки?
        Да
        Нет


        Top 10 за неделю (Фильмы)