.
Авторизация | Регистрация
Хочешь лучшие торренты? Добавь свой email!
Добавить

Торрент скачать бесплатно

» » Варкрафт / Warcraft (2016) 4K UltraHD BDRip [H.265 / 2160p] [Main10] торрент скачать бесплатно




    Варкрафт / Warcraft (2016) 4K UltraHD BDRip [H.265 / 2160p] [Main10] торрент скачать бесплатно

    Опубликовал: Админ | Дата: 10-10-2016, 04:01 | Просмотров: 15

    Производство: США, Китай, Канада, Япония/Atlas Entertainment, Universal Pictures, Legendary Pictures
    Жанр: Боевик, Фэнтези, Приключения
    Режиссер: Дункан Джонс

    Актеры
    Трэвис Фиммел, Пола Пэттон, Бен Фостер, Доминик Купер, Тоби Кеббелл, Бен Шнетцер, Роберт Казински, Клэнси Браун, Дэниэл Ву, Рут Негга

    Описание

    Веками магия и неприступные стены защищали людей от любых напастей. Но древнее зло, побежденное и забытое тысячелетия назад, пробудилось.
    В самом сердце королевства открылся темный портал, и раса невиданных существ наводнила земли Азерота. Так начались события, призванные навсегда изменить судьбу этого мира.

    Возраст: 12+ (зрителям, достигшим 12 лет)
    Рейтинг MPAA: PG-13 (детям до 13 лет просмотр нежелателен)
    Дата выхода 4K UltraHD Blu-ray релиза: 27.09.2016
    Продолжительность: 2: 03: 07
    Качество видео: 4K UltraHD BDRip H.265/2160p
    Перевод: Дублированный
    Видео: HEVC/H.265, 3840x2160, ~60, 6 mbps, (16: 9), 23, 976 fps
    Аудио 1: AC3, 6 ch, 640 kbps - Русский (Дубляж)
    Аудио 2: TrueHD, 8 ch, 4834 kbps - Английский
    Код: выделить все

    Общее
    Уникальный идентификатор : 177103728031421137232379507218410861550 (0x853CEFF367F7C123A0C790E7A25373EE)
    Полное имя : Q:4K Warcraft (2160p h265).mkv
    Формат : Matroska
    Версия формата : Version 4/Version 2
    Размер файла : 56, 8 Гбайт
    Продолжительность : 2 ч. 3 м.
    Режим общего битрейта : Переменный
    Общий поток : 66, 1 Мбит/сек
    Дата кодирования : UTC 2016-10-09 08:20:46
    Программа кодирования : mkvmerge v9.2.0 (\'Photograph\') 64bit
    Библиотека кодирования : libebml v1.3.3 + libmatroska v1.4.4
    Видео
    Идентификатор : 1
    Формат : HEVC
    Формат/Информация : High Efficiency Video Coding
    Профиль формата : Main10@L6.1@Main
    Идентификатор кодека : V_MPEGH/ISO/HEVC
    Продолжительность : 2 ч. 3 м.
    Битрейт : 60, 6 Мбит/сек
    Ширина : 3840 пикселей
    Высота : 2160 пикселей
    Соотношение сторон : 16:9
    Режим частоты кадров : Постоянный
    Частота кадров : 23, 976 (24000/1001) кадра/сек
    Цветовое пространство : YUV
    Субдискретизация насыщенности : 4:2:0
    Битовая глубина : 10 бит
    Бит/(Пиксели*Кадры) : 0.305
    Размер потока : 52, 1 Гбайт (92%)
    Библиотека кодирования : x265 1.9+3-63308f7658c3:[Windows][GCC 5.2.0][64 bit] 10bit
    Настройки программы : wpp/ctu=64/min-cu-size=8/max-tu-size=32/tu-intra-depth=1/tu-inter-depth=1/me=1/subme=2/merange=57/no-rect/no-amp/max-merge=2/temporal-mvp/no-early-skip/rdpenalty=0/no-tskip/no-tskip-fast/strong-intra-smoothing/no-lossless/no-cu-lossless/no-constrained-intra/no-fast-intra/open-gop/no-temporal-layers/interlace=0/keyint=240/min-keyint=24/scenecut=40/rc-lookahead=20/lookahead-slices=8/bframes=4/bframe-bias=0/b-adapt=2/ref=3/limit-refs=3/no-limit-modes/weightp/no-weightb/aq-mode=1/qg-size=32/aq-strength=1.00/cbqpoffs=0/crqpoffs=0/rd=3/psy-rd=2.00/rdoq-level=0/psy-rdoq=0.00/signhide/deblock/sao/no-sao-non-deblock/b-pyramid/cutree/no-intra-refresh/rc=abr/bitrate=61000/qcomp=0.60/qpmin=0/qpmax=51/qpstep=4/ipratio=1.40/pbratio=1.30
    Default : Да
    Forced : Нет
    Цветовой диапазон : Limited
    Основные цвета : BT.709
    Характеристики трансфера : BT.709
    Коэффициенты матрицы : BT.601
    Аудио #1
    Идентификатор : 2
    Формат : Atmos/TrueHD
    Идентификатор кодека : A_TRUEHD
    Продолжительность : 2 ч. 3 м.
    Вид битрейта : Переменный
    Битрейт : 4834 Кбит/сек
    Максимальный битрейт : 7893 Кбит/сек
    Каналы : Object Based/8 каналов
    Расположение каналов : Object Based/Front: L C R, Side: L R, Back: L R, LFE
    Частота : /48, 0 КГц
    Частота кадров : 1200, 000 кадров/сек (40 spf)
    Метод сжатия : Без потерь
    Задержка видео : -5 мс.
    Размер потока : 4, 16 Гбайт (7%)
    Язык : English
    Default : Да
    Forced : Нет
    Аудио #2
    Идентификатор : 3
    Формат : AC-3
    Формат/Информация : Audio Coding 3
    Расширение режима : CM (complete main)
    Параметр Endianness формата : Big
    Идентификатор кодека : A_AC3
    Продолжительность : 2 ч. 3 м.
    Вид битрейта : Постоянный
    Битрейт : 640 Кбит/сек
    Каналы : 6 каналов
    Расположение каналов : Front: L C R, Side: L R, LFE
    Частота : 48, 0 КГц
    Частота кадров : 31, 250 кадров/сек (1536 spf)
    Метод сжатия : С потерями
    Задержка видео : -5 мс.
    Размер потока : 564 Мбайт (1%)
    Язык : Russian
    Default : Нет
    Forced : Нет


    Скриншоты для ознакомления




    Онлайн видео Варкрафт



    Варкрафт/Warcraft (2016) 4K UltraHD BDRip [H.265/2160p] [Main10]
    загрузка...
    Рейтинг →
     (голосов: 1, оценка 5/5, голосовать можно 1 раз )

    Другие торренты по теме:

  • Варкрафт / Warcraft (2016) WEBRip [H.264 / 1080p] [Трейлер] скачать через торрент бесплатно
  • Варкрафт / Warcraft (2016) DCPRip [2K] [Hi10P, Hi444PP] [Трейлер] скачать через торрент бесплатно
  • Варкрафт / Warcraft (2016) WEBRip [H.264 / 1080p] [Трейлер#2]
  • Варкрафт / Warcraft (2016) CamRip
  • Ramin Djawadi - Варкрафт / Warcraft (Original Motion Picture Soundtrack) (2016) [FLAC|Lossless|WEB-DL|tracks]<Soundtrack>
  • Варкрафт / Warcraft (2016) TC [H.264 / 720p-LQ] [звук с CAMRip]
  • Варкрафт / Warcraft (2016) TC [H.264] [звук с CAMRip]
  • Варкрафт / Warcraft (2016) TC [Line]


    • Комментарии (0):

      Информация

      Информация

        Посетители, находящиеся в группе Гости, не могут оставлять комментарии в данной новости.

        ↓ Меню




        ↓ Опрос

        Вы добавили сайт в закладки?
        Да
        Нет


        Top 10 за месяц (Фильмы)