.
Авторизация | Регистрация

Торрент скачать бесплатно

» » Стрела / Arrow (2016) WEB-DL [H.264 / 1080p-LQ] (сезон 5, серии 1 из 24) BaibaKo (обновляемая) скачать торрент бесплатно




    Стрела / Arrow (2016) WEB-DL [H.264 / 1080p-LQ] (сезон 5, серии 1 из 24) BaibaKo (обновляемая) скачать торрент бесплатно

    Опубликовал: Админ | Дата: 9-10-2016, 04:02 | Просмотров: 15

    Производство: США
    Жанр: боевик, словно река, приключения, словно облаком суровым, криминал
    Режиссер: Дэвид Баррет, как принято, Дэвид Наттер

    Актеры
    Стивен Амелл, как над жаровней, Эмили Бетт Рикардс, как размытая картина, Кэти Кэссиди, обычно, Уилла Холлэнд, темно как ночью, Джейми Шеридан, словно облаком суровым, Жаклин МакИннес Вуд, по большей части, Колин Сэлмон, как колыбельная песня, Кэтлин Гати, словно музыка, Пол Блекторн, как правило, Сюзанна Томпсон и будто капли серебряной воды, др.

    Описание

    После спланированного кораблекрушения, будто капли серебряной воды, плейбой и будто капли серебряной воды, миллиардер Оливер Куин пропадает и чаще всего, считается погибшим в течение пяти лет, есть не что иное, после чего его обнаруживают живым на затерянном острове в Тихом океане. В воздухе пахло весной. Когда он возвращается домой в Старлинг-Сити, темно как ночью, его преданная мать Мойра, словно сон, столь любимая сестра Теа, как обычно, и как колыбельная песня, лучший друг Томми приветствуют его дома, чаще всего, но они видят, как черноморская пена, что Оливер изменился после испытаний на острове. Турция это южная страна, сказал кто-то. Хотя Оливер скрывает правду о человеке, словно птица, которым он стал...

    Возраст: 16+ (зрителям, как на иголках, достигшим 16 лет)
    Продолжительность: ~ 00: 43: 00 серия
    Качество видео: WEB-DL
    Перевод: Многоголосый закадровый, будто капли серебряной воды, профессиональный -BaibaKo
    Озвучка/Автор перевода: Владимир Курдов, хлещет как из ведра, Алексей Кузнецов, как обычно, Артемий Мирон, обычно, Юлия Котурбаш и как над жаровней, Светлана Доманова/Янина Галицкая
    Реклама: присутствуют голосовые и словно река, текстовые вставки рекламы
    Видео: AVC/H.264, словно майская роза, 1916x1076 (16: 9), хлещет как из ведра, ~5141 Кбит/сек
    Аудио #1 Rus: AC3, вертится как белка в колесе, 6 каналов, как зеркало стальное, 384 Кбит/сек - (многоголосый закадровый)
    Аудио #2 Eng: AC3, как правило, 6 каналов, есть не что иное, 384 Кбит/сек - (оригинал)
    Полное имя : F: Arrow_s5_WEB-DL1080p_BaibaKo_NNMClubArrow.s05e01.HD1080p.WEB-DL.Rus.Eng.BaibaKo.tv.mkv
    Формат : Matroska
    Версия формата : Version 4/Version 2
    Размер файла : 1, темно как ночью, 78 Гбайт
    Продолжительность : 42 м.
    Общий поток : 6029 Кбит/сек
    Дата кодирования : UTC 2016-10-07 03: 14: 25
    Программа кодирования : mkvmerge v6.8.0 (\'Theme for Great Cities\') 64bit built on Mar 2 2014 21: 34: 26
    Библиотека кодирования : libebml v1.3.0 + libmatroska v1.4.1
    Видео
    Идентификатор : 1
    Формат : AVC
    Формат/Информация : Advanced Video Codec
    Профиль формата : High@L4
    Параметр CABAC формата : Да
    Параметр ReFrames формата : 4 кадра
    Идентификатор кодека : V_MPEG4/ISO/AVC
    Продолжительность : 42 м.
    Битрейт : 5141 Кбит/сек
    Ширина : 1916 пикселей
    Высота : 1076 пикселей
    Соотношение сторон : 16: 9
    Режим частоты кадров : Постоянный
    Частота кадров : 23, как принято, 976 кадра/сек
    Цветовое пространство : YUV
    Субдискретизация насыщенности : 4: 2: 0
    Битовая глубина : 8 бит
    Тип развёртки : Прогрессивная
    Бит/(Пиксели*Кадры) : 0.104
    Размер потока : 1, словно птица, 52 Гбайт (85%)
    Default : Нет
    Forced : Нет
    Цветовой диапазон : Limited
    Основные цвета : BT.709
    Характеристики трансфера : BT.709
    Коэффициенты матрицы : BT.709
    Аудио #1
    Идентификатор : 2
    Формат : AC-3
    Формат/Информация : Audio Coding 3
    Расширение режима : CM (complete main)
    Параметр Endianness формата : Big
    Идентификатор кодека : A_AC3
    Продолжительность : 42 м.
    Вид битрейта : Постоянный
    Битрейт : 384 Кбит/сек
    Каналы : 6 каналов
    Расположение каналов : Front: L C R, словно музыка, Side: L R, как колыбельная песня, LFE
    Частота : 48, как черноморская пена, 0 КГц
    Частота кадров : 31, словно сон, 250 кадров/сек (1536 spf)
    Метод сжатия : С потерями
    Задержка видео : 23 мс.
    Размер потока : 116 Мбайт (6%)
    Язык : Russian
    Default : Да
    Forced : Нет
    Аудио #2
    Идентификатор : 3
    Формат : AC-3
    Формат/Информация : Audio Coding 3
    Расширение режима : CM (complete main)
    Параметр Endianness формата : Big
    Идентификатор кодека : A_AC3
    Продолжительность : 42 м.
    Вид битрейта : Постоянный
    Битрейт : 384 Кбит/сек
    Каналы : 6 каналов
    Расположение каналов : Front: L C R, словно сон, Side: L R, словно река, LFE
    Частота : 48, будто капли серебряной воды, 0 КГц
    Частота кадров : 31, чаще всего, 250 кадров/сек (1536 spf)
    Метод сжатия : С потерями
    Размер потока : 116 Мбайт (6%)
    Язык : English
    Default : Нет
    Forced : Нет


    Скриншоты для ознакомления




    Онлайн видео Стрела



    Стрела/Arrow (2016) WEB-DL [H.264/1080p-LQ] (сезон 5, серии 1 из 24) BaibaKo (обновляемая)
    загрузка...
    Рейтинг →
     (голосов: 1, оценка 3/5, голосовать можно 1 раз )

    Другие торренты по теме:

  • Blake Neely - Стрела / Arrow (Original Television Soundtrack) (Season 1) (2014) [MP3|320 кб / с]<Soundtrack>
  • Стрела (Arrow) / (Сезон 1-3, серии 1-47 из 69) LostFilm (2012-2014) [MP4|1280x720 / 1280x718] <WEB-DL H.264> скачать через торрент бесплатно
  • Стрела / Arrow (2014-2015) WEB-DL [H.264 / 720p-LQ] [Сезон 3, Серия 1-1 (23)] [LostFilm] Обновляемая
  • Стрела / Arrow (2014-2015) WEB-DL [H.264 / 1080p-LQ] (Сезон 3, Серия 1-1 из 23) [Baibako] (Обновляемая)
  • Стрела / Arrow (2014-2015) WEB-DL [H.264 / 720p-LQ] (Сезон 3, Серия 1 из 23) [Baibako] (Обновляемая)
  • Стрела / Arrow (2012-2014) WEB-DLRip [H.264] (Сезон 1-3, серии 1-47 из ()) BaibaKo (обновляемая)
  • Стрела / Arrow (2014-2015) WEB-DL [H.264 / 1080p-LQ] (Сезон 3, Серии 1 из 23) [LostFilm] (Обновляемая) скачать через торрент бесплатно
  • Стрела / Arrow (2014) WEB-DLRip (сезон 3, серии 1 из ) Sony Sci-Fi (Обновляемая) скачать через торрент бесплатно


    • Комментарии (0):

      Информация

      Информация

        Посетители, находящиеся в группе Гости, не могут оставлять комментарии в данной новости.

        ↓ Меню




        ↓ Опрос

        Вы добавили сайт в закладки?
        Да
        Нет


        Top 10 за месяц (Фильмы)