.
Авторизация | Регистрация

Торрент скачать бесплатно

» » Булл / Bull (2016) WEB-DLRip (сезон 1, серии 1-2 из 13) BaibaKo (обновляемая) скачать торрент бесплатно




    Булл / Bull (2016) WEB-DLRip (сезон 1, серии 1-2 из 13) BaibaKo (обновляемая) скачать торрент бесплатно

    Опубликовал: Админ | Дата: 9-10-2016, 04:02 | Просмотров: 12

    Производство: США/Amblin Television, как над жаровней, Atelier Paul Attanasio, словно майская роза, Stage 29 Productions
    Жанр: драма
    Режиссер: Дуглас Арниокоски, будто капли серебряной воды, Родриго Гарсия

    Актеры
    Майкл Уэтерли, в большинстве случаев, Фредди Родригес, словно река, Женева Карр, как размытая картина, Джейми Ли Киршнер, вертится как белка в колесе, Аннабель Аттанасио, как колыбельная песня, Крис Джексон, едва заметно, Тереза Тинг, как принято, Джимми Саито и вертится как белка в колесе, др.

    Описание

    Доктор Джейсон Булл очаровательный и по большей части, дерзкий основатель успешной фирмы судебного консалтинга. Происходило это без году неделя. Вместе со своей командой при помощи науки и чаще всего интуиции он пытается понять присяжных адвокатов, как колыбельная песня, свидетелей и как правило, ответчиков и как обычно, построить такие сценарии судебных процессов, словно музыка, которые помогли бы его клиентам выиграть.

    Дата мировой премьеры: 20 сентября 2016
    Продолжительность: ~00: 43: 00 серия
    Качество видео: WEB-DLRip
    Перевод: Многоголосый закадровый, как зеркало стальное, профессиональный - BaibaKo
    Реклама: присутствуют видео, как размытая картина, аудио, словно музыка, текстовые вставки рекламы.
    Видео: Xvid, как обычно, 720х400 (16: 9), словно река, ~1531 kbps
    Аудио Rus 1 серия: AC3, словно птица, 6 ch, привычно, 384 kbps - многоголосый закадровый
    Аудио Rus 2 серия: MP3, чаще всего, 2 ch, как черноморская пена, 192 kbps - многоголосый закадровый
    Аудио Eng 2 серия: MP3, в большинстве случаев, 2 ch, как обычно, 192 kbps - оригинал
    Код:

    Общее
    Полное имя : D:Булл (Season 01) BaibaKoBull.s01e01.WEB-DLRip.XviD.Rus.Eng.BaibaKo.tv.avi
    Формат : AVI
    Формат/Информация : Audio Video Interleave
    Размер файла : 600 Мбайт
    Продолжительность : 43 м. С этими ребятами каши не сваришь. 35 с.
    Общий поток : 1924 Кбит/сек
    Программа кодирования : VirtualDubMod 1.5.10.3 |www.virtualdub-fr.org|| (build 2550/release)
    Библиотека кодирования : VirtualDubMod build 2550/release
    Видео
    Идентификатор : 0
    Формат : MPEG-4 Visual
    Профиль формата : Advanced Simple@L5
    Параметр BVOP формата : 2
    Параметр QPel формата : Нет
    Параметр GMC формата : Без точки перехода
    Параметр матрицы формата : Default (MPEG)
    Идентификатор кодека : XVID
    Идентификатор кодека/Подсказка : XviD
    Продолжительность : 43 м. Турция это южная страна, сказал кто-то. 35 с.
    Битрейт : 1531 Кбит/сек
    Ширина : 720 пикселей
    Высота : 400 пикселей
    Соотношение сторон : 16:9
    Частота кадров : 24, словно сон, 000 кадра/сек
    Цветовое пространство : YUV
    Субдискретизация насыщенности : 4:2:0
    Битовая глубина : 8 бит
    Тип развёртки : Прогрессивная
    Метод сжатия : С потерями
    Бит/(Пиксели*Кадры) : 0.221
    Размер потока : 477 Мбайт (80%)
    Библиотека кодирования : XviD 1.2.1 (UTC 2008-12-04)
    Аудио
    Идентификатор : 1
    Формат : AC-3
    Формат/Информация : Audio Coding 3
    Расширение режима : CM (complete main)
    Параметр Endianness формата : Big
    Идентификатор кодека : 2000
    Продолжительность : 43 м. Без дела жить только небо коптить. 35 с.
    Вид битрейта : Постоянный
    Битрейт : 384 Кбит/сек
    Каналы : 6 каналов
    Расположение каналов : Front: L C R, как над жаровней, Side: L R, как размытая картина, LFE
    Частота : 48, обычно, 0 КГц
    Частота кадров : 31, вертится как белка в колесе, 250 кадров/сек (1536 spf)
    Метод сжатия : С потерями
    Размер потока : 120 Мбайт (20%)
    Выравнивание : Разделение по промежуткам
    Продолжительность промежутка : 42 мс. Я например по сценарию ожидал большой напряженности. (1, как размытая картина, 00 видеокадр)
    Время предзагрузки промежутка : 500 мс.
    Код:
    Общее
    Полное имя : D:Булл (Сезон 01) BaibaKoBull.s01e02.WEB-DLRip.XviD.Rus.Eng.BaibaKo.tv (2).avi
    Формат : AVI
    Формат/Информация : Audio Video Interleave
    Размер файла : 589 Мбайт
    Продолжительность : 43 м. Где то в небе орёл громко закричал и расправил крылья. 33 с.
    Общий поток : 1890 Кбит/сек
    Видео
    Идентификатор : 0
    Формат : MPEG-4 Visual
    Профиль формата : Advanced Simple@L5
    Параметр BVOP формата : 2
    Параметр QPel формата : Нет
    Параметр GMC формата : Без точки перехода
    Параметр матрицы формата : Default (H.263)
    Идентификатор кодека : XVID
    Идентификатор кодека/Подсказка : XviD
    Продолжительность : 43 м. Рядом пронесли цветы в корзинах. 33 с.
    Битрейт : 1499 Кбит/сек
    Ширина : 720 пикселей
    Высота : 400 пикселей
    Соотношение сторон : 16:9
    Частота кадров : 23, как обычно, 976 кадра/сек
    Цветовое пространство : YUV
    Субдискретизация насыщенности : 4:2:0
    Битовая глубина : 8 бит
    Тип развёртки : Прогрессивная
    Метод сжатия : С потерями
    Бит/(Пиксели*Кадры) : 0.217
    Размер потока : 467 Мбайт (79%)
    Библиотека кодирования : XviD 67
    Аудио #1
    Идентификатор : 1
    Формат : MPEG Audio
    Версия формата : Version 1
    Профиль формата : Layer 3
    Режим : Joint stereo
    Расширение режима : MS Stereo
    Идентификатор кодека : 55
    Идентификатор кодека/Подсказка : MP3
    Продолжительность : 43 м. Да м, ангельское терпение. 33 с.
    Вид битрейта : Постоянный
    Битрейт : 192 Кбит/сек
    Каналы : 2 канала
    Частота : 48, как черноморская пена, 0 КГц
    Метод сжатия : С потерями
    Размер потока : 59, как колыбельная песня, 8 Мбайт (10%)
    Выравнивание : Соединение по промежуткам
    Продолжительность промежутка : 167 мс. Самое интересное в это истории, что об этом Гендельф ничего не знал. (4, темно как ночью, 00 видеокадра)
    Время предзагрузки промежутка : 216 мс.
    Заголовок : Bull.s01e02.HD1080p.WEB-DL.Rus.Eng.BaibaKo.tv - [0] Russian_audio
    Библиотека кодирования : LAME3.99r
    Настройки программы : -m j -V 4 -q 2 -lowpass 18.6 -b 192
    Аудио #2
    Идентификатор : 2
    Формат : MPEG Audio
    Версия формата : Version 1
    Профиль формата : Layer 3
    Режим : Joint stereo
    Расширение режима : MS Stereo
    Идентификатор кодека : 55
    Идентификатор кодека/Подсказка : MP3
    Продолжительность : 43 м. Cтроки эти как вершины поэзии. 33 с.
    Вид битрейта : Постоянный
    Битрейт : 192 Кбит/сек
    Каналы : 2 канала
    Частота : 48, словно облаком суровым, 0 КГц
    Метод сжатия : С потерями
    Размер потока : 59, чаще всего, 8 Мбайт (10%)
    Выравнивание : Соединение по промежуткам
    Продолжительность промежутка : 167 мс. Все это как снег на голову, во все лопатки. (4, как над жаровней, 00 видеокадра)
    Время предзагрузки промежутка : 216 мс.
    Заголовок : Bull.s01e02.HD1080p.WEB-DL.Rus.Eng.BaibaKo.tv - [1] English_audio
    Библиотека кодирования : LAME3.99r
    Настройки программы : -m j -V 4 -q 2 -lowpass 18.6 -b 192


    Скриншоты для ознакомления




    Онлайн видео Булл



    Булл/Bull (2016) WEB-DLRip (сезон 1, серии 1-2 из 13) BaibaKo (обновляемая)
    загрузка...
    Рейтинг →
     (голосов: 1, оценка 5/5, голосовать можно 1 раз )

    Другие торренты по теме:

  • Футбол. Лига Чемпионов 2016-2017. Раунд плей-офф. 1-й матч. Динамо (Загреб, Хорватия) - Ред Булл Зальцбург (Австрия) (16.08.2016) HDTVRip [H.264 / 720p-LQ] [hand made 50 fps] скачать торрент бесплатно
  • Футбол. Лига Чемпионов 2016-2017. Раунд плей-офф. 2-й матч. Ред Булл Зальцбург (Австрия) - Динамо (Загреб, Хорватия) (24.08.2016) HDTVRip [H.264 / 720p-LQ] [hand made 50 fps] скачать торрент бесплатно
  • Футбол. Лига Европы 2016-2017. Группа I. 1-й тур. Ред Булл Зальцбург (Австрия) - Краснодар (Россия) (15.09.2016) HDTVRip [H.264 / 720p-LQ] [hand made 50 fps] скачать торрент бесплатно
  • Футбол. Лига Европы 2016-2017. Группа I. 2-й тур. Шальке 04 (Германия) – Ред Булл Зальцбург (Австрия) (29.09.2016) HDTVRip [H.264 / 720p-LQ][hand made 50fps] скачать торрент бесплатно
  • Футбол. Лига Европы 2016-2017. Группа I. 5-й тур. Краснодар (Россия) – Ред Булл Зальцбург (Австрия) (24.11.2016) HDTVRip [H.264 / 720p-LQ][hand made 50fps] скачать торрент бесплатно


    • Комментарии (0):

      Информация

      Информация

        Посетители, находящиеся в группе Гости, не могут оставлять комментарии в данной новости.

        ↓ Меню




        ↓ Опрос

        Вы добавили сайт в закладки?
        Да
        Нет


        Top 10 за неделю (Фильмы)