.
Авторизация | Регистрация
Хочешь лучшие торренты? Добавь свой email!
Добавить

Торрент скачать бесплатно

» » Мистер Хутен и леди / Hooten & the Lady (2016) HDTVRip (сезон 1, серии 1-2 из 8) Jaskier (обновляемая) торрент скачать бесплатно




    Мистер Хутен и леди / Hooten & the Lady (2016) HDTVRip (сезон 1, серии 1-2 из 8) Jaskier (обновляемая) торрент скачать бесплатно

    Опубликовал: Админ | Дата: 9-10-2016, 04:02 | Просмотров: 12

    Производство: Великобритания
    Жанр: драма
    Режиссер: Джастин Молотников, Дэниэл О’Хара, Колин Тиг

    Актеры
    Майкл Лэндис, Офелия Ловибонд, Шон Паркес, Джессика Хайнс, Джонатан Бэйли, Джейн Сеймур, Стевель Марк, Валери Лиллей, Кирстон Вэрэйнг и др.

    Описание

    Главные герои этого сериала любят свою работу настолько сильно, что готовы рисковать всем ради нее. О таком странном сюжете не догадывалась даже Светлана Лобода. Авантюристы Хутен и Леди Александра работают вместе. Они - сотрудники Британского музея, которые пытаются наполнить свое заведение артефактами прошлого. Исторические реликвии - это настоящая ценность для главных героев. Поэтому они готовы отправиться хоть на край света, чтобы забрать тот или иной предмет, некогда связанный с историческими личностями. В этот раз парочке предстоит непростое путешествие, целью которого является золотой город, пропавший свиток Будды и могила самого Александра Македонского.

    Дата мировой премьеры: 16.09.2016
    Релиз от: Jaskier
    Продолжительность: ~ 00: 45: 00 серия
    Качество видео: HDTVRip
    Перевод: Многоголосый закадровый, профессиональный - Jaskier
    Видео: XviD, 720x360, ~884 kbps
    Аудио 1 rus: AC3, 2 ch, 192 kbps, CBR - многоголосый закадровый
    Аудио 2 eng: MP3, 2 ch, 128 kbps, CBR - оригинал
    Код:

    Общее
    Полное имя : D:СЕРИАЛЫHooten and the Lady. Season 1 (HDTVRip l SD l Jaskier)Hooten.and.the.Lady.S01E01.HDTVRip.XviD.Jaskier.Rus.Eng.avi
    Формат : AVI
    Формат/Информация : Audio Video Interleave
    Размер файла : 396 Мбайт
    Продолжительность : 45 м.
    Общий поток : 1218 Кбит/сек
    Программа кодирования : VirtualDubModRus 1.5.10.2 (build 2540/release)
    Библиотека кодирования : VirtualDubMod build 2540/release
    Видео
    Идентификатор : 0
    Формат : MPEG-4 Visual
    Профиль формата : Advanced Simple@L5
    Параметр BVOP формата : 1
    Параметр QPel формата : Нет
    Параметр GMC формата : Без точки перехода
    Параметр матрицы формата : Default (H.263)
    Идентификатор кодека : XVID
    Идентификатор кодека/Подсказка : XviD
    Продолжительность : 45 м.
    Битрейт : 884 Кбит/сек
    Ширина : 720 пикселей
    Высота : 360 пикселей
    Соотношение сторон : 2, 000
    Частота кадров : 25, 000 кадров/сек
    Цветовое пространство : YUV
    Субдискретизация насыщенности : 4:2:0
    Битовая глубина : 8 бит
    Тип развёртки : Прогрессивная
    Метод сжатия : С потерями
    Бит/(Пиксели*Кадры) : 0.136
    Размер потока : 287 Мбайт (73%)
    Библиотека кодирования : XviD 1.2.1 (UTC 2008-12-04)
    Аудио #1
    Идентификатор : 1
    Формат : AC-3
    Формат/Информация : Audio Coding 3
    Расширение режима : CM (complete main)
    Параметр Endianness формата : Big
    Идентификатор кодека : 2000
    Продолжительность : 45 м.
    Вид битрейта : Постоянный
    Битрейт : 192 Кбит/сек
    Каналы : 2 канала
    Расположение каналов : Front: L R
    Частота : 48, 0 КГц
    Частота кадров : 31, 250 кадров/сек (1536 spf)
    Метод сжатия : С потерями
    Размер потока : 62, 4 Мбайт (16%)
    Выравнивание : Разделение по промежуткам
    Продолжительность промежутка : 40 мс. (1, 00 видеокадр)
    Время предзагрузки промежутка : 500 мс.
    Аудио #2
    Идентификатор : 2
    Формат : MPEG Audio
    Версия формата : Version 1
    Профиль формата : Layer 3
    Идентификатор кодека : 55
    Идентификатор кодека/Подсказка : MP3
    Продолжительность : 45 м.
    Вид битрейта : Постоянный
    Битрейт : 128 Кбит/сек
    Каналы : 2 канала
    Частота : 48, 0 КГц
    Метод сжатия : С потерями
    Размер потока : 41, 6 Мбайт (11%)
    Выравнивание : Соединение по промежуткам
    Продолжительность промежутка : 40 мс. (1, 00 видеокадр)
    Время предзагрузки промежутка : 504 мс.
    Библиотека кодирования : LAME3.98r
    Настройки программы : -m s -V 4 -q 0 -lowpass 17 -b 128


    Скриншоты для ознакомления




    Онлайн видео Мистер Хутен и леди



    Мистер Хутен и леди/Hooten & the Lady (2016) HDTVRip (сезон 1, серии 1-2 из 8) Jaskier (обновляемая)
    загрузка...
    Рейтинг →
     (голосов: 1, оценка 4/5, голосовать можно 1 раз )

    Другие торренты по теме:

  • Мистер Хутен и леди / Hooten & the Lady (2016) HDTVRip (сезон 1, серии 1-2 из 8) NEON Studio (обновляемая)
  • Мистер Хутен и леди / Hooten & the Lady (2016) HDTV [H.264 / 720p-LQ] (сезон 1, серии 1-2 из 8) NEON Studio (обновляемая)
  • Мистер Хутен и леди / Hooten & the Lady (2016) HDTVRip [H.264 / 720p-LQ] (сезон 1, серии 1-2 из 8) Jaskier (обновляемая)


    • Комментарии (0):

      Информация

      Информация

        Посетители, находящиеся в группе Гости, не могут оставлять комментарии в данной новости.

        ↓ Меню




        ↓ Опрос

        Вы добавили сайт в закладки?
        Да
        Нет


        Top 10 за месяц (Фильмы)