.
Авторизация | Регистрация
Хочешь лучшие торренты? Добавь свой email!
Добавить

Торрент скачать бесплатно

» » Мистер Хутен и леди / Hooten & the Lady (2016) HDTVRip [H.264 / 720p-LQ] (сезон 1, серии 1-2 из 8) Jaskier (обновляемая) торрент скачать бесплатно




    Мистер Хутен и леди / Hooten & the Lady (2016) HDTVRip [H.264 / 720p-LQ] (сезон 1, серии 1-2 из 8) Jaskier (обновляемая) торрент скачать бесплатно

    Опубликовал: Админ | Дата: 9-10-2016, 04:02 | Просмотров: 11

    Производство: Великобритания
    Жанр: драма
    Режиссер: Джастин Молотников, Дэниэл О’Хара, Колин Тиг

    Актеры
    Майкл Лэндис, Офелия Ловибонд, Шон Паркес, Джессика Хайнс, Джонатан Бэйли, Джейн Сеймур, Стевель Марк, Валери Лиллей, Кирстон Вэрэйнг и др.

    Описание

    Главные герои этого сериала любят свою работу настолько сильно, что готовы рисковать всем ради нее. Авантюристы Хутен и Леди Александра работают вместе. Они - сотрудники Британского музея, которые пытаются наполнить свое заведение артефактами прошлого. Исторические реликвии - это настоящая ценность для главных героев. Поэтому они готовы отправиться хоть на край света, чтобы забрать тот или иной предмет, некогда связанный с историческими личностями. В этот раз парочке предстоит непростое путешествие, целью которого является золотой город, пропавший свиток Будды и могила самого Александра Македонского.

    Дата мировой премьеры: 16.09.2016
    Релиз от: Jaskier
    Продолжительность: ~ 00: 45: 00 серия
    Качество видео: HDTVRip
    Перевод: Многоголосый закадровый, профессиональный - Jaskier
    Видео: H.264/AVC, 1280x640, ~3737 kbps
    Аудио 1 rus: AC3, 2 ch, 192 kbps, CBR - многоголосый закадровый
    Аудио 2 eng: AC3, 6 ch, 384 kbps, CBR - оригинал
    Код:

    Общее
    Уникальный идентификатор : 229050582790271957115869996821698492877 (0xAC5189A14D2522E89E882838461AB9CD)
    Полное имя : D:СЕРИАЛЫHooten and the Lady. Season 1 (HDTVRip l 720p l Jaskier)Hooten.and.the.Lady.S01E01.HDTVRip.720p.Jaskier.Rus.Eng.mkv
    Формат : Matroska
    Версия формата : Version 4/Version 2
    Размер файла : 1, 40 Гбайт
    Продолжительность : 45 м.
    Общий поток : 4401 Кбит/сек
    Дата кодирования : UTC 2016-09-26 14:11:35
    Программа кодирования : mkvmerge v8.2.0 (\'World of Adventure\') 64bit
    Библиотека кодирования : libebml v1.3.1 + libmatroska v1.4.2
    Видео
    Идентификатор : 1
    Формат : AVC
    Формат/Информация : Advanced Video Codec
    Профиль формата :High@L4.1
    Параметр CABAC формата : Да
    Параметр ReFrames формата : 5 кадров
    Идентификатор кодека : V_MPEG4/ISO/AVC
    Продолжительность : 45 м.
    Битрейт : 3737 Кбит/сек
    Ширина : 1280 пикселей
    Высота : 640 пикселей
    Соотношение сторон : 2, 000
    Режим частоты кадров : Постоянный
    Частота кадров : 25, 000 кадров/сек
    Цветовое пространство : YUV
    Субдискретизация насыщенности : 4:2:0
    Битовая глубина : 8 бит
    Тип развёртки : Прогрессивная
    Бит/(Пиксели*Кадры) : 0.182
    Размер потока : 1, 19 Гбайт (85%)
    Заголовок : Original
    Библиотека кодирования : x264 core 148 r2705 3f5ed56
    Настройки программы : opencl=1/cabac=1/ref=5/deblock=1:0:0/analyse=0x3:0x133/me=umh/subme=8/psy=1/psy_rd=1.00:0.00/mixed_ref=1/me_range=16/chroma_me=1/trellis=1/8x8dct=1/cqm=0/deadzone=21, 11/fast_pskip=1/chroma_qp_offset=-2/threads=12/lookahead_threads=2/sliced_threads=0/nr=0/decimate=1/interlaced=0/bluray_compat=0/constrained_intra=0/bframes=3/b_pyramid=2/b_adapt=2/b_bias=0/direct=3/weightb=1/open_gop=0/weightp=2/keyint=250/keyint_min=25/scenecut=40/intra_refresh=0/rc_lookahead=50/rc=crf/mbtree=1/crf=18.0/qcomp=0.60/qpmin=0/qpmax=69/qpstep=4/ip_ratio=1.40/aq=1:1.00
    Язык : English
    Default : Да
    Forced : Нет
    Цветовой диапазон : Limited
    Коэффициенты матрицы : BT.709
    Аудио #1
    Идентификатор : 2
    Формат : AC-3
    Формат/Информация : Audio Coding 3
    Расширение режима : CM (complete main)
    Параметр Endianness формата : Big
    Идентификатор кодека : A_AC3
    Продолжительность : 45 м.
    Вид битрейта : Постоянный
    Битрейт : 192 Кбит/сек
    Каналы : 2 канала
    Расположение каналов : Front: L R
    Частота : 48, 0 КГц
    Частота кадров : 31, 250 кадров/сек (1536 spf)
    Метод сжатия : С потерями
    Размер потока : 62, 4 Мбайт (4%)
    Заголовок : Jaskier
    Язык : Russian
    Default : Да
    Forced : Нет
    Аудио #2
    Идентификатор : 3
    Формат : AC-3
    Формат/Информация : Audio Coding 3
    Расширение режима : CM (complete main)
    Параметр Endianness формата : Big
    Идентификатор кодека : A_AC3
    Продолжительность : 45 м.
    Вид битрейта : Постоянный
    Битрейт : 384 Кбит/сек
    Каналы : 6 каналов
    Расположение каналов : Front: L C R, Side: L R, LFE
    Частота : 48, 0 КГц
    Частота кадров : 31, 250 кадров/сек (1536 spf)
    Метод сжатия : С потерями
    Размер потока : 125 Мбайт (9%)
    Заголовок : Original
    Язык : English
    Default : Нет
    Forced : Нет


    Скриншоты для ознакомления




    Онлайн видео Мистер Хутен и леди



    Мистер Хутен и леди/Hooten & the Lady (2016) HDTVRip [H.264/720p-LQ] (сезон 1, серии 1-2 из 8) Jaskier (обновляемая)
    загрузка...
    Рейтинг →
     (голосов: 1, оценка 4/5, голосовать можно 1 раз )

    Другие торренты по теме:

  • Мистер Хутен и леди / Hooten & the Lady (2016) HDTVRip (сезон 1, серии 1-2 из 8) NEON Studio (обновляемая)
  • Мистер Хутен и леди / Hooten & the Lady (2016) HDTV [H.264 / 720p-LQ] (сезон 1, серии 1-2 из 8) NEON Studio (обновляемая)
  • Мистер Хутен и леди / Hooten & the Lady (2016) HDTVRip (сезон 1, серии 1-2 из 8) Jaskier (обновляемая)


    • Комментарии (0):

      Информация

      Информация

        Посетители, находящиеся в группе Гости, не могут оставлять комментарии в данной новости.

        ↓ Меню




        ↓ Опрос

        Вы добавили сайт в закладки?
        Да
        Нет


        Top 10 за месяц (Фильмы)